<?xml version="1.0" standalone="no"?>
<!DOCTYPE svg PUBLIC "-//W3C//DTD SVG 1.1//EN" "http://www.w3.org/Graphics/SVG/1.1/DTD/svg11.dtd" >
<svg xmlns="http://www.w3.org/2000/svg" xmlns:xlink="http://www.w3.org/1999/xlink" version="1.1">
<metadata></metadata>
<defs>
<font id="ibm_plex_monoregular" horiz-adv-x="600" >
<font-face units-per-em="1000" ascent="800" descent="-200" />
<missing-glyph horiz-adv-x="500" />
<glyph horiz-adv-x="0" />
<glyph horiz-adv-x="0" />
<glyph unicode="&#xd;" />
<glyph unicode=" " />
<glyph unicode="!" d="M284 233l-28 262v203h88v-203l-28 -262h-32zM300 -9q-41 0 -57.5 17t-16.5 43v18q0 26 16.5 43t57.5 17t57.5 -17t16.5 -43v-18q0 -26 -16.5 -43t-57.5 -17z" />
<glyph unicode="&#x22;" d="M174 463v277h76v-277h-76zM351 463v277h76v-277h-76z" />
<glyph unicode="#" d="M148 216h-132v66h144l23 134h-131v66h143l38 216h73l-123 -698h-73zM417 698h73l-38 -216h132v-66h-144l-23 -134h131v-66h-143l-38 -216h-73z" />
<glyph unicode="$" d="M279 -11q-83 5 -138 38.5t-91 83.5l61 50q36 -45 76 -70t93 -30v261l-23 4q-52 9 -87 27.5t-56 44t-30 57t-9 65.5q0 85 54.5 133.5t149.5 55.5v102h62v-102q69 -5 119.5 -33.5t88.5 -79.5l-63 -45q-27 36 -61.5 58t-84.5 27v-245l30 -5q51 -9 86 -27t56.5 -43.5 t30.5 -57.5t9 -67q0 -88 -54.5 -141t-156.5 -61v-102h-62v102zM156 520q0 -49 28.5 -77t95.5 -42v236q-60 -6 -92 -35.5t-32 -81.5zM471 190q0 54 -30.5 82t-100.5 40v-250q63 7 97 40t34 88z" />
<glyph unicode="%" d="M169 356q-66 0 -107.5 44.5t-41.5 132.5t41.5 132.5t107.5 44.5t107.5 -44.5t41.5 -132.5t-41.5 -132.5t-107.5 -44.5zM169 410q36 0 58.5 25t22.5 73v50q0 48 -22.5 73t-58.5 25t-58.5 -25t-22.5 -73v-50q0 -48 22.5 -73t58.5 -25zM510 698h72l-160 -300h-72zM178 300 h72l-160 -300h-72zM431 -12q-66 0 -107.5 44.5t-41.5 132.5t41.5 132.5t107.5 44.5t107.5 -44.5t41.5 -132.5t-41.5 -132.5t-107.5 -44.5zM431 42q36 0 58.5 25t22.5 73v50q0 48 -22.5 73t-58.5 25t-58.5 -25t-22.5 -73v-50q0 -48 22.5 -73t58.5 -25z" />
<glyph unicode="&#x26;" d="M217 -12q-46 0 -81.5 15t-60 41.5t-37.5 61.5t-13 75q0 26 6 54t21 54.5t39.5 51t62.5 43.5q-28 36 -46.5 74t-18.5 83q0 38 14.5 69t39 53.5t57.5 34.5t70 12q33 0 60.5 -9.5t48.5 -24.5t35.5 -34t21.5 -38l-66 -34q-13 31 -39 51.5t-65 20.5q-45 0 -71.5 -27.5 t-26.5 -70.5v-8q0 -16 4 -31t12.5 -31.5t22 -35.5t32.5 -43l90 -111l73 -90h5q7 39 9 89t4 98h141v-67h-75q-3 -24 -6 -45t-7 -41t-9 -40.5t-14 -43.5l122 -144h-95l-87 103h-5q-14 -52 -57 -83.5t-111 -31.5zM238 59q43 0 76 18t52 50l-174 210q-46 -29 -65 -65.5 t-19 -79.5v-15q0 -54 36 -86t94 -32z" />
<glyph unicode="'" d="M262 463v277h76v-277h-76z" />
<glyph unicode="(" d="M205 311q0 73 16.5 140.5t45 125.5t66.5 104.5t80 78.5h81q-44 -33 -82.5 -76.5t-68 -95t-46.5 -111t-17 -123.5v-86q0 -64 17 -123.5t46.5 -111t68 -95t82.5 -76.5h-81q-42 31 -80 78t-66.5 105t-45 125.5t-16.5 140.5z" />
<glyph unicode=")" d="M395 311q0 -73 -16.5 -140.5t-45 -125.5t-66.5 -105t-80 -78h-81q43 33 82 76.5t68.5 95t46.5 111t17 123.5v86q0 64 -17 123.5t-46.5 111t-68.5 95t-82 76.5h81q42 -32 80 -78.5t66.5 -104.5t45 -125.5t16.5 -140.5z" />
<glyph unicode="*" d="M175 72l-57 42l124 170l-199 66l21 66l199 -64v216h74v-216l199 64l21 -66l-199 -66l124 -170l-57 -42l-125 172z" />
<glyph unicode="+" d="M262 62v209h-200v68h200v209h76v-209h200v-68h-200v-209h-76z" />
<glyph unicode="," d="M257 136h129l-115 -277h-67z" />
<glyph unicode="-" d="M155 262v84h290v-84h-290z" />
<glyph unicode="." d="M300 -9q-41 0 -57.5 17t-16.5 43v18q0 26 16.5 43t57.5 17t57.5 -17t16.5 -43v-18q0 -26 -16.5 -43t-57.5 -17z" />
<glyph unicode="/" d="M90 -138l348 898h72l-348 -898h-72z" />
<glyph unicode="0" d="M300 -12q-64 0 -110 24.5t-76 70.5t-44 113t-14 153q0 85 14 152.5t44 113.5t76 70.5t110 24.5t110 -24.5t76 -70.5t44 -113.5t14 -152.5q0 -86 -14 -153t-44 -113t-76 -70.5t-110 -24.5zM300 61q42 0 72 16.5t48.5 46.5t27.5 72.5t9 95.5v114q0 52 -9 95t-27.5 73 t-48.5 46.5t-72 16.5t-72 -16.5t-48.5 -46.5t-27.5 -73t-9 -95v-114q0 -53 9 -95.5t27.5 -72.5t48.5 -46.5t72 -16.5zM300 290q-35 0 -48.5 14t-13.5 34v22q0 20 13.5 34t48.5 14t48.5 -14t13.5 -34v-22q0 -20 -13.5 -34t-48.5 -14z" />
<glyph unicode="1" d="M85 0v73h200v563h-7l-176 -164l-49 53l185 173h131v-625h184v-73h-468z" />
<glyph unicode="2" d="M537 0h-466v86l233 210q51 46 84 94.5t33 102.5v12q0 63 -33 97.5t-98 34.5q-64 0 -98.5 -32.5t-51.5 -86.5l-75 28q10 31 27.5 60.5t44.5 52.5t65.5 37t89.5 14q52 0 92.5 -15t68 -42t42 -64t14.5 -81q0 -40 -11.5 -75t-32 -67t-49 -62.5t-63.5 -60.5l-195 -170h379v-73 z" />
<glyph unicode="3" d="M270 402q73 0 109.5 32.5t36.5 83.5v7q0 56 -35.5 84t-92.5 28q-56 0 -90.5 -24.5t-56.5 -64.5l-63 48q13 21 32 41.5t44.5 36.5t59 26t76.5 10q45 0 84 -11.5t68 -34t45.5 -55.5t16.5 -75q0 -34 -10.5 -61t-29 -47t-43.5 -34t-53 -21v-4q29 -6 56 -19.5t48 -35t33.5 -52 t12.5 -69.5q0 -45 -17.5 -82.5t-49 -64t-76 -41.5t-98.5 -15q-46 0 -81.5 10t-63 27t-48 38t-36.5 44l63 48q14 -21 29 -38t34.5 -29.5t44.5 -19.5t58 -7q74 0 113.5 34t39.5 97v8q0 62 -38.5 96t-115.5 34h-83v72h77z" />
<glyph unicode="4" d="M378 0v137h-344v74l302 487h122v-492h104v-69h-104v-137h-80zM109 206h269v427h-4z" />
<glyph unicode="5" d="M501 625h-312l-20 -267h7q26 35 58 55.5t88 20.5q46 0 84.5 -14.5t66.5 -42.5t44 -67.5t16 -90.5t-16 -93.5t-47 -73t-75 -47.5t-100 -17q-44 0 -78.5 10t-61 27t-46.5 38t-36 44l63 48q14 -21 28.5 -38t33.5 -29.5t43 -19.5t56 -7q72 0 110.5 39t38.5 108v8 q0 69 -39 108t-112 39q-50 0 -77.5 -17t-50.5 -42l-71 10l25 384h380v-73z" />
<glyph unicode="6" d="M301 -12q-55 0 -99 18.5t-74.5 53t-47 84.5t-16.5 112q0 78 23.5 146.5t60 125t81.5 100t88 70.5h108q-57 -41 -101.5 -80t-78.5 -81.5t-57 -91t-38 -109.5l5 -2q25 43 66 71.5t106 28.5q46 0 84 -15t66 -43t43.5 -68t15.5 -89q0 -51 -17 -93.5t-47.5 -73t-74 -47.5 t-96.5 -17zM300 59q72 0 111.5 39t39.5 110v8q0 71 -39.5 110t-111.5 39t-111.5 -39t-39.5 -110v-8q0 -71 39.5 -110t111.5 -39z" />
<glyph unicode="7" d="M173 0l273 626h-306v-130h-75v202h466v-74l-268 -624h-90z" />
<glyph unicode="8" d="M300 -12q-61 0 -107 15.5t-76.5 42.5t-46 64t-15.5 80q0 72 39 114t103 59v8q-56 19 -88.5 61.5t-32.5 102.5q0 80 59 127.5t165 47.5t165 -47.5t59 -127.5q0 -60 -32.5 -102.5t-88.5 -61.5v-8q64 -17 103 -59t39 -114q0 -43 -15.5 -80t-46.5 -64t-76.5 -42.5 t-106.5 -15.5zM300 59q74 0 116 33t42 93v22q0 60 -41.5 93t-116.5 33t-116.5 -33t-41.5 -93v-22q0 -60 42 -93t116 -33zM300 401q68 0 103.5 29t35.5 83v14q0 54 -36.5 83t-102.5 29t-102.5 -29t-36.5 -83v-14q0 -54 35.5 -83t103.5 -29z" />
<glyph unicode="9" d="M536 442q0 -78 -23.5 -146.5t-60.5 -125t-81.5 -100t-87.5 -70.5h-108q57 41 101.5 80t78.5 81.5t57 91t38 109.5l-5 2q-26 -43 -66.5 -71.5t-105.5 -28.5q-46 0 -84.5 15t-66 43t-43 67.5t-15.5 89.5q0 51 16.5 93.5t47.5 73t74.5 47.5t96.5 17q55 0 99 -18.5t74.5 -53 t47 -84.5t16.5 -112zM300 333q72 0 111.5 39t39.5 110v8q0 71 -39.5 110t-111.5 39t-111.5 -39t-39.5 -110v-8q0 -71 39.5 -110t111.5 -39z" />
<glyph unicode=":" d="M300 -9q-41 0 -57.5 17t-16.5 43v18q0 26 16.5 43t57.5 17t57.5 -17t16.5 -43v-18q0 -26 -16.5 -43t-57.5 -17zM300 387q-41 0 -57.5 17t-16.5 43v18q0 26 16.5 43t57.5 17t57.5 -17t16.5 -43v-18q0 -26 -16.5 -43t-57.5 -17z" />
<glyph unicode=";" d="M257 136h129l-115 -277h-67zM300 387q-41 0 -57.5 17t-16.5 43v18q0 26 16.5 43t57.5 17t57.5 -17t16.5 -43v-18q0 -26 -16.5 -43t-57.5 -17z" />
<glyph unicode="&#x3c;" d="M85 265v80l430 249v-83l-355 -201v-8l355 -201v-85z" />
<glyph unicode="=" d="M62 372v68h476v-68h-476zM62 172v68h476v-68h-476z" />
<glyph unicode="&#x3e;" d="M85 99l355 201v8l-355 201v85l430 -249v-80l-430 -249v83z" />
<glyph unicode="?" d="M239 215v157q86 4 135 37.5t49 101.5v14q0 56 -33.5 84t-91.5 28q-60 0 -96 -33t-50 -84l-75 28q10 33 28 62.5t45.5 51.5t65 35t85.5 13t86.5 -13.5t65.5 -38t42 -59.5t15 -78q0 -47 -17 -82.5t-44 -60.5t-61.5 -40.5t-69.5 -21.5v-101h-79zM282 -9q-41 0 -57.5 17 t-16.5 43v18q0 26 16.5 43t57.5 17t57.5 -17t16.5 -43v-18q0 -26 -16.5 -43t-57.5 -17z" />
<glyph unicode="@" d="M454 -112h-123q-76 0 -127.5 25.5t-83 77t-45 128.5t-13.5 181q0 116 15.5 194.5t45.5 126.5t74.5 68.5t103.5 20.5q60 0 102.5 -19t69.5 -52t39.5 -78.5t12.5 -97.5v-372h-71v57h-5q-10 -26 -33 -47.5t-67 -21.5q-61 0 -97 51.5t-36 162.5t36 163t97 52q22 0 38.5 -6 t28.5 -16t20 -22t13 -25h5v24q0 85 -35.5 134t-115.5 49q-89 0 -127.5 -68.5t-38.5 -219.5v-129q0 -58 8 -108.5t29.5 -88t59 -59t97.5 -21.5h123v-64zM375 139q36 0 57.5 20t21.5 58v153q0 38 -21.5 58t-57.5 20q-42 0 -63.5 -28.5t-21.5 -95.5v-61q0 -67 21.5 -95.5 t63.5 -28.5z" />
<glyph unicode="A" d="M481 0l-59 199h-245l-59 -199h-87l214 698h111l214 -698h-89zM304 609h-9l-98 -337h205z" />
<glyph unicode="B" d="M88 698h237q90 0 141 -49t51 -131q0 -63 -30.5 -99t-78.5 -51v-3q59 -14 97 -52.5t38 -111.5q0 -42 -14 -79t-39.5 -64t-60 -42.5t-74.5 -15.5h-267v698zM330 73q58 0 91 26t33 80v41q0 53 -33 79.5t-91 26.5h-158v-253h158zM316 395q53 0 83 23.5t30 71.5v39 q0 48 -30 72t-83 24h-144v-230h144z" />
<glyph unicode="C" d="M323 -12q-128 0 -190.5 93t-62.5 268t62.5 268t190.5 93q48 0 83 -13t60 -35t42 -49.5t30 -55.5l-72 -33q-9 23 -21 43.5t-28.5 36t-39 24.5t-54.5 9q-83 0 -123.5 -63t-40.5 -168v-114q0 -105 40.5 -168t123.5 -63q32 0 54.5 9t39 24.5t28.5 36t21 43.5l72 -33 q-13 -29 -30 -56t-42 -49t-60 -35t-83 -13z" />
<glyph unicode="D" d="M95 698h195q128 0 191 -88t63 -261t-63 -261t-191 -88h-195v698zM286 73q84 0 126.5 58t42.5 164v108q0 106 -42.5 164t-126.5 58h-107v-552h107z" />
<glyph unicode="E" d="M90 0v698h430v-73h-346v-235h334v-73h-334v-244h346v-73h-430z" />
<glyph unicode="F" d="M90 0v698h440v-73h-356v-235h326v-73h-326v-317h-84z" />
<glyph unicode="G" d="M444 93h-5q-9 -20 -21 -39t-30.5 -33.5t-44.5 -23.5t-62 -9q-114 0 -169.5 92t-55.5 264q0 180 61 273t188 93q49 0 85 -13t61.5 -35t42.5 -49.5t28 -55.5l-72 -33q-9 23 -20.5 43.5t-28 36t-39.5 24.5t-54 9q-84 0 -123.5 -63t-39.5 -168v-108q0 -53 8 -96.5t26.5 -75.5 t48 -49.5t72.5 -17.5q68 0 106 41t38 106v72h-147v67h225v-345h-78v93z" />
<glyph unicode="H" d="M436 317h-272v-317h-84v698h84v-308h272v308h84v-698h-84v317z" />
<glyph unicode="I" d="M84 0v67h174v564h-174v67h432v-67h-174v-564h174v-67h-432z" />
<glyph unicode="J" d="M480 698v-517q0 -44 -15 -80t-42.5 -61t-65.5 -38.5t-83 -13.5q-80 0 -132 41.5t-68 116.5l80 17q5 -21 13.5 -39.5t23 -32t35.5 -21.5t50 -8q57 0 88.5 32.5t31.5 101.5v429h-252v73h336z" />
<glyph unicode="K" d="M269 342l-100 -118v-224h-84v698h84v-364h3l92 116l206 248h101l-245 -294l252 -404h-98z" />
<glyph unicode="L" d="M120 0v698h84v-625h331v-73h-415z" />
<glyph unicode="M" d="M455 350v221h-8l-147 -359l-147 359h-8v-221v-350h-77v698h108l123 -308h6l123 308h104v-698h-77v350z" />
<glyph unicode="N" d="M163 588h-7v-588h-76v698h119l238 -588h7v588h76v-698h-119z" />
<glyph unicode="O" d="M300 -12q-64 0 -110 24.5t-76 70.5t-44 113t-14 153q0 85 14 152.5t44 113.5t76 70.5t110 24.5t110 -24.5t76 -70.5t44 -113.5t14 -152.5q0 -86 -14 -153t-44 -113t-76 -70.5t-110 -24.5zM300 61q42 0 71 16.5t48 46.5t27.5 72.5t8.5 95.5v114q0 52 -8.5 95t-27.5 73 t-48 46.5t-71 16.5t-71 -16.5t-48 -46.5t-27.5 -73t-8.5 -95v-114q0 -53 8.5 -95.5t27.5 -72.5t48 -46.5t71 -16.5z" />
<glyph unicode="P" d="M90 0v698h254q97 0 148 -53t51 -148t-51 -148t-148 -53h-170v-296h-84zM174 369h168q53 0 82.5 26.5t29.5 75.5v52q0 49 -29.5 75.5t-82.5 26.5h-168v-256z" />
<glyph unicode="Q" d="M491 -164h-117q-59 0 -86.5 33t-27.5 85v37q-53 7 -91.5 34.5t-63.5 73t-37 109t-12 141.5q0 85 14 152.5t44 113.5t76 70.5t110 24.5t110 -24.5t76 -70.5t44 -113.5t14 -152.5q0 -157 -49 -250.5t-155 -107.5v-87h151v-68zM300 61q42 0 71 16.5t48 46.5t27.5 72.5 t8.5 95.5v114q0 52 -8.5 95t-27.5 73t-48 46.5t-71 16.5t-71 -16.5t-48 -46.5t-27.5 -73t-8.5 -95v-114q0 -53 8.5 -95.5t27.5 -72.5t48 -46.5t71 -16.5z" />
<glyph unicode="R" d="M174 0h-84v698h254q97 0 148 -53t51 -148q0 -85 -44 -136t-128 -59l178 -302h-94l-170 298h-111v-298zM342 369q53 0 82.5 26.5t29.5 75.5v52q0 49 -29.5 75.5t-82.5 26.5h-168v-256h168z" />
<glyph unicode="S" d="M298 -12q-94 0 -154 34.5t-99 88.5l61 50q41 -51 86.5 -76t108.5 -25q76 0 116 35t40 98q0 51 -29 79.5t-101 40.5l-78 13q-51 9 -85.5 27t-55.5 43.5t-30 56t-9 63.5q0 96 63 145t170 49q84 0 141.5 -28t92.5 -79l-59 -51q-29 38 -70 62t-106 24q-71 0 -109 -30t-38 -90 q0 -47 28.5 -76.5t102.5 -42.5l75 -13q51 -9 86 -27t56.5 -43t30.5 -56t9 -65q0 -97 -63.5 -152t-180.5 -55z" />
<glyph unicode="T" d="M342 625v-625h-84v625h-233v73h550v-73h-233z" />
<glyph unicode="U" d="M164 698v-419q0 -51 3 -91t16 -68.5t40.5 -43.5t76.5 -15t76.5 15t40.5 43.5t16 68.5t3 91v419h84v-399q0 -78 -7.5 -136t-31 -97t-67 -58.5t-114.5 -19.5t-114.5 19.5t-67 58.5t-31 97t-7.5 136v399h84z" />
<glyph unicode="V" d="M243 0l-207 698h89l99 -349l75 -264h5l75 264l99 349h86l-207 -698h-114z" />
<glyph unicode="W" d="M90 0l-55 698h75l29 -400l15 -211h8l92 429h94l92 -429h8l15 211l29 400h73l-55 -698h-121l-85 417h-8l-85 -417h-121z" />
<glyph unicode="X" d="M575 0h-95l-83 139l-92 152h-4l-95 -152l-88 -139h-92l228 356l-215 342h95l81 -135l87 -141h4l86 141l84 135h92l-216 -341z" />
<glyph unicode="Y" d="M258 0v274l-241 424h96l100 -182l85 -159h4l87 159l100 182h94l-241 -424v-274h-84z" />
<glyph unicode="Z" d="M552 0h-504v75l395 550h-378v73h470v-75l-396 -550h413v-73z" />
<glyph unicode="[" d="M225 -138v898h280v-62h-211v-774h211v-62h-280z" />
<glyph unicode="\" d="M438 -138l-348 898h72l348 -898h-72z" />
<glyph unicode="]" d="M375 760v-898h-280v62h211v774h-211v62h280z" />
<glyph unicode="^" d="M489 287l-189 342h-4l-189 -342l-62 31l210 380h90l210 -380z" />
<glyph unicode="_" d="M60 -169v74h480v-74h-480z" />
<glyph unicode="`" d="M187 744l73 35l85 -170l-52 -24z" />
<glyph unicode="a" d="M495 0q-47 0 -67 24t-25 60h-5q-17 -45 -54.5 -70.5t-100.5 -25.5q-81 0 -129 42t-48 115q0 72 52.5 111t169.5 39h110v51q0 57 -32 85.5t-91 28.5q-52 0 -85 -20.5t-53 -55.5l-54 40q10 20 27 39t42 33.5t57 23t71 8.5q91 0 144.5 -46t53.5 -128v-284h72v-70h-55z M257 55q31 0 56.5 7.5t44.5 20t29.5 30t10.5 37.5v85h-110q-72 0 -105 -20t-33 -58v-21q0 -40 28.5 -60.5t78.5 -20.5z" />
<glyph unicode="b" d="M95 740h80v-308h4q50 96 159 96q95 0 148.5 -71t53.5 -199t-53.5 -199t-148.5 -71q-109 0 -159 96h-4v-84h-80v740zM307 59q70 0 108.5 42.5t38.5 112.5v88q0 70 -38.5 112.5t-108.5 42.5q-27 0 -51 -7t-42 -20.5t-28.5 -33t-10.5 -45.5v-186q0 -26 10.5 -45.5t28.5 -33 t42 -20.5t51 -7z" />
<glyph unicode="c" d="M318 -12q-56 0 -99.5 19.5t-73.5 54.5t-45.5 85t-15.5 111t16 111t46 85.5t73 54.5t98 19q75 0 122 -33t69 -86l-64 -34q-14 40 -46.5 62t-80.5 22q-35 0 -62.5 -11.5t-46.5 -32.5t-28.5 -50t-9.5 -63v-88q0 -34 9.5 -63t28.5 -50t47 -32.5t64 -11.5q52 0 86 24t54 66 l57 -39q-23 -52 -71.5 -86t-126.5 -34z" />
<glyph unicode="d" d="M425 84h-4q-50 -96 -159 -96q-95 0 -148.5 71t-53.5 199t53.5 199t148.5 71q109 0 159 -96h4v308h80v-740h-80v84zM293 59q27 0 51 7t42 20.5t28.5 33t10.5 45.5v186q0 26 -10.5 45.5t-28.5 33t-42 20.5t-51 7q-70 0 -108.5 -42.5t-38.5 -112.5v-88q0 -70 38.5 -112.5 t108.5 -42.5z" />
<glyph unicode="e" d="M309 -12q-56 0 -100.5 19t-76 54.5t-48.5 85t-17 110.5q0 62 17.5 112t48.5 85.5t74.5 54.5t96.5 19q52 0 94.5 -19t72.5 -52.5t46 -79.5t16 -101v-38h-382v-24q0 -34 11 -63t31.5 -50t50 -32.5t65.5 -11.5q52 0 90 24t58 66l59 -40q-23 -52 -76.5 -85.5t-130.5 -33.5z M304 462q-33 0 -61 -12t-48.5 -33t-32 -49.5t-11.5 -62.5v-7h296v11q0 34 -10.5 62t-29 48.5t-45 31.5t-58.5 11z" />
<glyph unicode="f" d="M83 68h174v380h-184v68h184v106q0 52 27.5 85t86.5 33h173v-68h-207v-156h207v-68h-207v-380h184v-68h-438v68z" />
<glyph unicode="g" d="M561 -59q0 -78 -65 -115.5t-195 -37.5q-125 0 -179.5 33t-54.5 95q0 42 22 65t62 34v12q-22 11 -34 28t-12 43q0 40 26.5 60t66.5 30v4q-48 21 -74.5 62t-26.5 96q0 39 14 72t40.5 56.5t63.5 36.5t82 13q58 0 102 -21v9q0 30 14 50t48 20h95v-70h-116v-35q28 -24 43 -57 t15 -74q0 -39 -14.5 -72t-40.5 -56.5t-63.5 -36.5t-82.5 -13q-13 0 -25 1t-24 3q-12 -2 -25 -6.5t-24 -12t-18 -17.5t-7 -23q0 -23 23 -30.5t60 -7.5h114q100 0 145 -37.5t45 -100.5zM486 -63q0 31 -25 49.5t-87 18.5h-179q-52 -21 -52 -70q0 -34 27 -58.5t90 -24.5h78 q70 0 109 21.5t39 63.5zM297 234q60 0 88.5 28t28.5 74v29q0 46 -28.5 73.5t-88.5 27.5t-88 -27.5t-28 -73.5v-29q0 -46 28 -74t88 -28z" />
<glyph unicode="h" d="M98 740h80v-308h4q8 19 20 36.5t29.5 30.5t41.5 21t56 8q81 0 130 -51.5t49 -145.5v-331h-80v317q0 71 -31 105.5t-91 34.5q-24 0 -47 -6t-41 -18t-29 -31t-11 -44v-358h-80v740z" />
<glyph unicode="i" d="M332 630q-35 0 -49 14.5t-14 36.5v16q0 22 14 36.5t49 14.5t49 -14.5t14 -36.5v-16q0 -22 -14 -36.5t-49 -14.5zM106 68h186v380h-186v68h266v-448h174v-68h-440v68z" />
<glyph unicode="j" d="M102 -132h250v580h-259v68h339v-598q0 -52 -27.5 -85t-86.5 -33h-216v68zM392 630q-35 0 -49 14.5t-14 36.5v16q0 22 14 36.5t49 14.5t49 -14.5t14 -36.5v-16q0 -22 -14 -36.5t-49 -14.5z" />
<glyph unicode="k" d="M105 740h80v-467h4l90 85l172 158h98l-214 -202l239 -314h-99l-201 268l-89 -81v-187h-80v740z" />
<glyph unicode="l" d="M80 68h180v604h-180v68h260v-672h180v-68h-440v68z" />
<glyph unicode="m" d="M54 0v516h74v-60h4q12 30 34 51t65 21q45 0 67 -22.5t27 -58.5h3q14 35 40 58t72 23q63 0 84.5 -44t21.5 -126v-358h-74v345q0 66 -13.5 91.5t-49.5 25.5q-32 0 -52 -20.5t-20 -62.5v-379h-74v345q0 66 -13.5 91.5t-48.5 25.5q-32 0 -52.5 -20.5t-20.5 -62.5v-379h-74z " />
<glyph unicode="n" d="M98 0v516h80v-84h4q8 19 20 36.5t29.5 30.5t41.5 21t56 8q81 0 130 -51.5t49 -145.5v-331h-80v317q0 71 -31 105.5t-91 34.5q-24 0 -47 -6t-41 -18t-29 -31t-11 -44v-358h-80z" />
<glyph unicode="o" d="M300 -12q-54 0 -97.5 19t-74 54.5t-46.5 85t-16 111.5q0 61 16 111t46.5 85.5t74 54.5t97.5 19t97.5 -19t74 -54.5t46.5 -85.5t16 -111q0 -62 -16 -111.5t-46.5 -85t-74 -54.5t-97.5 -19zM300 57q67 0 108 40t41 124v74q0 84 -41 124t-108 40t-108 -40t-41 -124v-74 q0 -84 41 -124t108 -40z" />
<glyph unicode="p" d="M95 516h80v-84h4q50 96 159 96q95 0 148.5 -71t53.5 -199t-53.5 -199t-148.5 -71q-109 0 -159 96h-4v-284h-80v716zM307 59q70 0 108.5 42.5t38.5 112.5v88q0 70 -38.5 112.5t-108.5 42.5q-27 0 -51 -7t-42 -20.5t-28.5 -33t-10.5 -45.5v-186q0 -26 10.5 -45.5t28.5 -33 t42 -20.5t51 -7z" />
<glyph unicode="q" d="M425 84h-4q-50 -96 -159 -96q-95 0 -148.5 71t-53.5 199t53.5 199t148.5 71q109 0 159 -96h4v84h80v-716h-80v284zM293 59q27 0 51 7t42 20.5t28.5 33t10.5 45.5v186q0 26 -10.5 45.5t-28.5 33t-42 20.5t-51 7q-70 0 -108.5 -42.5t-38.5 -112.5v-88q0 -70 38.5 -112.5 t108.5 -42.5z" />
<glyph unicode="r" d="M77 68h151v380h-151v68h231v-130h5q16 61 60.5 95.5t113.5 34.5h72v-80h-97q-69 0 -111.5 -40t-42.5 -105v-223h200v-68h-431v68z" />
<glyph unicode="s" d="M306 -12q-81 0 -139.5 27.5t-99.5 73.5l54 47q37 -39 81 -60t106 -21q60 0 98.5 21.5t38.5 67.5q0 20 -7.5 33.5t-20.5 21.5t-29 12.5t-34 7.5l-81 12q-27 4 -58.5 11t-57.5 22.5t-43.5 41.5t-17.5 68q0 39 15.5 67.5t43.5 48t66 29t83 9.5q70 0 121.5 -22t88.5 -61 l-52 -49q-9 11 -22.5 22.5t-33 21t-45.5 15.5t-60 6q-61 0 -93.5 -21t-32.5 -61q0 -20 7.5 -33.5t20.5 -21.5t29.5 -12.5t33.5 -7.5l81 -12q28 -4 59 -11t57 -22.5t43.5 -41.5t17.5 -68q0 -77 -59.5 -119t-158.5 -42z" />
<glyph unicode="t" d="M325 0q-59 0 -86.5 33t-27.5 85v330h-172v68h128q26 0 36.5 10.5t10.5 36.5v135h77v-182h235v-68h-235v-380h235v-68h-201z" />
<glyph unicode="u" d="M422 84h-4q-8 -19 -20 -36.5t-29.5 -30.5t-41.5 -21t-56 -8q-81 0 -130 51.5t-49 145.5v331h80v-317q0 -71 31 -105.5t91 -34.5q24 0 47 6t41 18t29 30.5t11 44.5v358h80v-516h-80v84z" />
<glyph unicode="v" d="M249 0l-185 516h81l74 -216l80 -233h4l80 233l74 216h79l-185 -516h-102z" />
<glyph unicode="w" d="M30 516h71l59 -446h9l88 446h88l88 -446h9l59 446h69l-79 -516h-104l-82 432h-8l-84 -432h-104z" />
<glyph unicode="x" d="M61 0l192 262l-187 254h96l78 -109l62 -86h4l60 86l77 109h92l-189 -253l194 -263h-96l-87 121l-59 82h-4l-57 -82l-84 -121h-92z" />
<glyph unicode="y" d="M467 516h80l-256 -629q-9 -22 -20 -38.5t-26 -27t-36 -16t-50 -5.5h-76v68h120l58 142l-208 506h82l87 -216l77 -196h4l77 196z" />
<glyph unicode="z" d="M85 0v77l333 371h-322v68h409v-77l-333 -371h343v-68h-430z" />
<glyph unicode="{" d="M319 -138q-42 0 -63 23.5t-21 58.5v63q0 27 5.5 47t13.5 36t18 28.5t19 23.5q17 20 23.5 34.5t6.5 30.5q0 38 -35 55.5t-103 17.5h-78v62h78q68 0 103 17.5t35 55.5q0 16 -6.5 30.5t-23.5 34.5q-9 11 -19 23.5t-18 28t-13.5 36t-5.5 47.5v63q0 35 21 58.5t63 23.5h176 v-62h-191v-77q0 -41 12 -63t28 -43q17 -22 32 -45.5t15 -55.5q0 -42 -29.5 -68t-80.5 -33v-4q51 -7 80.5 -33t29.5 -68q0 -32 -15 -55.5t-32 -45.5q-16 -21 -28 -43t-12 -63v-77h191v-62h-176z" />
<glyph unicode="|" d="M265 -138v898h70v-898h-70z" />
<glyph unicode="}" d="M281 760q42 0 63 -23.5t21 -58.5v-63q0 -27 -5.5 -47.5t-13.5 -36t-18 -28t-19 -23.5q-17 -20 -23.5 -34.5t-6.5 -30.5q0 -38 35 -55.5t103 -17.5h78v-62h-78q-68 0 -103 -17.5t-35 -55.5q0 -16 6.5 -30.5t23.5 -34.5q9 -11 19 -23.5t18 -28.5t13.5 -36t5.5 -47v-63 q0 -35 -21 -58.5t-63 -23.5h-176v62h191v77q0 41 -12 63t-28 43q-17 22 -32 45.5t-15 55.5q0 42 29.5 68t80.5 33v4q-51 7 -80.5 33t-29.5 68q0 32 15 55.5t32 45.5q16 21 28 43t12 63v77h-191v62h176z" />
<glyph unicode="~" d="M402 197q-38 0 -64.5 21.5t-55.5 55.5q-26 34 -46 53t-39 19q-29 0 -48.5 -31t-35.5 -108l-61 14q17 92 52 142t94 50q38 0 64 -21t54 -54q28 -36 48 -55t39 -19q33 1 52 38.5t32 100.5l61 -14q-22 -107 -58 -149.5t-88 -42.5z" />
<glyph unicode="&#xa0;" />
<glyph unicode="&#xa1;" d="M256 -182v203l28 262h32l28 -262v-203h-88zM300 387q-41 0 -57.5 17t-16.5 43v18q0 26 16.5 43t57.5 17t57.5 -17t16.5 -43v-18q0 -26 -16.5 -43t-57.5 -17z" />
<glyph unicode="&#xa2;" d="M279 -114v105q-94 13 -144.5 84t-50.5 183t51 183t144 84v105h62v-103q65 -5 106 -37.5t61 -80.5l-64 -34q-13 35 -39 56.5t-65 26.5v-400q43 5 72.5 28t46.5 61l57 -39q-21 -48 -64 -81t-111 -38v-103h-62zM170 214q0 -59 28 -100.5t82 -52.5v394q-54 -11 -82 -52.5 t-28 -100.5v-88z" />
<glyph unicode="&#xa3;" d="M75 0v105q42 17 60.5 51t18.5 81q0 13 -1.5 25t-3.5 24h-97v69h78q-11 34 -21.5 68t-10.5 76q0 46 16 85t46.5 67t74 43.5t97.5 15.5q80 0 132.5 -31.5t85.5 -82.5l-63 -45q-28 41 -65.5 63.5t-94.5 22.5q-66 0 -104.5 -33t-38.5 -110q0 -41 9.5 -74t20.5 -65h201v-69 h-182q3 -20 3 -39q0 -31 -7.5 -56.5t-19.5 -46t-26.5 -35.5t-28.5 -24v-5h384v-80h-463z" />
<glyph unicode="&#xa4;" d="M300 119q-52 0 -94 20l-69 -118l-61 35l74 126q-54 62 -54 167t54 167l-74 126l61 35l69 -118q42 20 94 20t94 -20l69 118l61 -35l-74 -126q54 -62 54 -167t-54 -167l74 -126l-61 -35l-69 118q-42 -20 -94 -20zM300 186q54 0 86.5 32.5t32.5 98.5v64q0 66 -32.5 98.5 t-86.5 32.5t-86.5 -32.5t-32.5 -98.5v-64q0 -66 32.5 -98.5t86.5 -32.5z" />
<glyph unicode="&#xa5;" d="M75 69h185v186h-185v69h141l-194 374h93l184 -374h4l184 374h91l-194 -374h141v-69h-185v-186h185v-69h-450v69z" />
<glyph unicode="&#xa6;" d="M265 401v359h70v-359h-70zM265 -138v359h70v-359h-70z" />
<glyph unicode="&#xa7;" d="M487 3q0 -36 -14.5 -65t-41 -50t-63.5 -32t-82 -11q-46 0 -90.5 13t-79.5 43l47 56q24 -20 55 -31.5t69 -11.5q57 0 89 23.5t32 64.5q0 38 -27.5 60.5t-78.5 36.5l-64 18q-83 23 -120 63.5t-37 91.5q0 48 29 85t83 58v5q-39 24 -57.5 58t-18.5 74q0 36 14.5 65t41 50 t63.5 32t82 11q46 0 90.5 -13t79.5 -43l-47 -56q-24 20 -55 31.5t-69 11.5q-57 0 -89 -23.5t-32 -64.5q0 -38 27.5 -60.5t78.5 -36.5l64 -18q83 -23 120 -63.5t37 -91.5q0 -48 -29 -85t-83 -58v-5q39 -24 57.5 -58t18.5 -74zM444 263q0 43 -29 69t-91 43l-63 17 q-17 4 -34 11q-31 -21 -49 -48.5t-18 -62.5q0 -43 29 -69t91 -43l63 -17q17 -4 34 -11q31 21 49 48.5t18 62.5z" />
<glyph unicode="&#xa8;" d="M207 618q-31 0 -44 13t-13 33v14q0 20 13 33t44 13t44 -13t13 -33v-14q0 -20 -13 -33t-44 -13zM393 618q-31 0 -44 13t-13 33v14q0 20 13 33t44 13t44 -13t13 -33v-14q0 -20 -13 -33t-44 -13z" />
<glyph unicode="&#xa9;" d="M300 18q-63 0 -117.5 23t-95 66t-64 104t-23.5 138q0 76 23.5 137.5t64 104.5t95 66t117.5 23t117.5 -23t95 -66t64 -104.5t23.5 -137.5q0 -77 -23.5 -138t-64 -104t-95 -66t-117.5 -23zM300 73q51 0 94.5 19t75 52.5t49.5 78.5t18 96v60q0 51 -18 96t-49.5 78.5 t-75 52.5t-94.5 19t-94.5 -19t-75 -52.5t-49.5 -78.5t-18 -96v-60q0 -51 18 -96t49.5 -78.5t75 -52.5t94.5 -19zM305 171q-73 0 -113.5 48.5t-40.5 129.5q0 82 41 130t113 48q48 0 78.5 -22t47.5 -58l-53 -29q-11 24 -28 38t-45 14q-39 0 -60.5 -25.5t-21.5 -66.5v-57 q0 -42 21 -67.5t62 -25.5q30 0 48 15t32 40l50 -31q-17 -35 -49.5 -58t-81.5 -23z" />
<glyph unicode="&#xaa;" d="M429 357q-33 0 -47 14t-16 39h-4q-11 -23 -38.5 -42t-74.5 -19q-54 0 -82.5 27t-28.5 72q0 54 39.5 79t111.5 25h73v28q0 78 -77 78q-35 0 -58.5 -14.5t-34.5 -37.5l-42 34q7 13 19.5 25.5t29.5 22.5t39 16t50 6q64 0 100.5 -33t36.5 -94v-170h38v-56h-34zM287 506 q-42 0 -64 -12t-22 -35v-10q0 -49 61 -49q40 0 70 17.5t30 47.5v41h-75z" />
<glyph unicode="&#xab;" d="M280 56l-206 174v80l206 174l25 -57l-148 -157l148 -157zM509 56l-206 174v80l206 174l25 -57l-148 -157l148 -157z" />
<glyph unicode="&#xac;" d="M453 78v193h-391v68h460v-261h-69z" />
<glyph unicode="&#xad;" d="M155 262v84h290v-84h-290z" />
<glyph unicode="&#xae;" d="M300 346q-38 0 -71.5 14t-58.5 38t-39 57.5t-14 72.5t14 72.5t39 57.5t58.5 38t71.5 14t71.5 -14t58 -38t39 -57.5t14.5 -72.5t-14.5 -72.5t-39 -57.5t-58 -38t-71.5 -14zM300 387q29 0 53.5 9.5t42.5 26.5t28.5 41t10.5 54v20q0 30 -10.5 54t-28.5 41t-42.5 26.5 t-53.5 9.5t-53.5 -9.5t-42.5 -26.5t-28.5 -41t-10.5 -54v-20q0 -30 10.5 -54t28.5 -41t42.5 -26.5t53.5 -9.5zM270 436h-40v185h85q28 0 43.5 -15.5t15.5 -41.5q0 -39 -37 -52l46 -76h-45l-39 70h-29v-70zM306 535q26 0 26 24v7q0 24 -26 24h-36v-55h36z" />
<glyph unicode="&#xaf;" d="M160 705h280v-68h-280v68z" />
<glyph unicode="&#xb0;" d="M300 368q-36 0 -67 13t-54.5 36t-36.5 54.5t-13 67.5t13 67.5t36.5 54.5t54.5 36t67 13t67 -13t54.5 -36t36.5 -54.5t13 -67.5t-13 -67.5t-36.5 -54.5t-54.5 -36t-67 -13zM300 432q46 0 73.5 31t27.5 76t-27.5 76t-73.5 31t-73.5 -31t-27.5 -76t27.5 -76t73.5 -31z" />
<glyph unicode="&#xb1;" d="M262 152v199h-200v68h200v199h76v-199h200v-68h-200v-199h-76zM62 0v68h476v-68h-476z" />
<glyph unicode="&#xb2;" d="M438 329h-272v57l130 105q29 24 45.5 47.5t16.5 50.5v6q0 26 -16.5 41.5t-48.5 15.5q-35 0 -52.5 -17t-25.5 -41l-54 20q6 18 16.5 34t27 28.5t39.5 20t53 7.5q62 0 95 -30.5t33 -78.5q0 -44 -26.5 -76.5t-68.5 -64.5l-97 -75h205v-50z" />
<glyph unicode="&#xb3;" d="M282 546q38 0 56.5 14.5t18.5 37.5v4q0 25 -17.5 38.5t-47.5 13.5q-29 0 -49 -12t-34 -33l-43 34q17 25 47.5 43t80.5 18q57 0 93.5 -25t36.5 -70q0 -36 -23 -57t-55 -28v-3q34 -6 59 -28t25 -62q0 -49 -38.5 -78.5t-104.5 -29.5q-55 0 -86 20t-50 46l47 34 q14 -22 34 -36t55 -14q38 0 57.5 16t19.5 45v6q0 55 -77 55h-45v51h40z" />
<glyph unicode="&#xb4;" d="M307 585l-52 24l85 170l73 -35z" />
<glyph unicode="&#xb5;" d="M98 -200v716h80v-317q0 -140 119 -140q24 0 46.5 6t40 18t28 30.5t10.5 44.5v358h80v-516h-80v84h-4q-9 -20 -20.5 -37.5t-28 -30.5t-39 -20.5t-52.5 -7.5q-75 0 -103 52h-4l7 -84v-156h-80z" />
<glyph unicode="&#xb6;" d="M270 246q-47 0 -87.5 17t-71.5 47t-48.5 71.5t-17.5 90.5t17.5 90.5t48.5 71.5t71.5 47t87.5 17h234v-847h-72v783h-90v-783h-72v395z" />
<glyph unicode="&#xb7;" d="M300 235q-41 0 -57.5 17t-16.5 43v18q0 26 16.5 43t57.5 17t57.5 -17t16.5 -43v-18q0 -26 -16.5 -43t-57.5 -17z" />
<glyph unicode="&#xb8;" d="M312 -207q-41 0 -64.5 13.5t-34.5 27.5l38 41q9 -11 24 -19.5t37 -8.5q19 0 31.5 7.5t12.5 23.5q0 14 -13 24.5t-55 16.5l-28 4l19 97h50l-16 -81l3 -3q19 6 39 6q29 0 48.5 -17t19.5 -49q0 -21 -9 -37t-24.5 -26t-35.5 -15t-42 -5z" />
<glyph unicode="&#xb9;" d="M176 329v50h109v265l-106 -55l-25 44l126 65h68v-319h98v-50h-270z" />
<glyph unicode="&#xba;" d="M300 349q-76 0 -118 48t-42 133q0 84 42.5 132t117.5 48t117.5 -48t42.5 -132q0 -85 -42.5 -133t-117.5 -48zM300 402q45 0 68 27.5t23 70.5v59q0 43 -23 70.5t-68 27.5t-68 -27.5t-23 -70.5v-59q0 -43 23 -70.5t68 -27.5z" />
<glyph unicode="&#xbb;" d="M67 113l148 157l-148 157l25 57l206 -174v-80l-206 -174zM296 113l148 157l-148 157l25 57l206 -174v-80l-206 -174z" />
<glyph unicode="&#xbc;" d="M40 413h94v230l-89 -45l-24 44l108 56h68v-285h83v-50h-240v50zM510 698h72l-160 -300h-72zM178 300h72l-160 -300h-72zM477 64h-163v59l142 212h82v-223h47v-48h-47v-64h-61v64zM477 112v170h-3l-114 -170h117z" />
<glyph unicode="&#xbd;" d="M40 413h94v230l-89 -45l-24 44l108 56h68v-285h83v-50h-240v50zM510 698h72l-160 -300h-72zM178 300h72l-160 -300h-72zM329 58l113 90q54 43 54 90v5q0 19 -13.5 32.5t-39.5 13.5t-41.5 -14.5t-25.5 -40.5l-53 22q11 34 41.5 59.5t83.5 25.5q57 0 85.5 -28.5t28.5 -68.5 q0 -42 -26.5 -74t-63.5 -61l-77 -59h180v-50h-246v58z" />
<glyph unicode="&#xbe;" d="M144 357q-52 0 -81 21.5t-45 49.5l47 33q12 -23 29.5 -38t49.5 -15q29 0 45.5 13.5t16.5 36.5v7q0 23 -18 34.5t-51 11.5h-35v50h35q32 0 47.5 12t15.5 29v7q0 20 -15 32t-41 12q-47 0 -72 -41l-42 34q18 26 45 42t71 16q54 0 86 -23.5t32 -63.5q0 -33 -20.5 -52.5 t-49.5 -24.5v-4q32 -5 54 -25t22 -55q0 -45 -34.5 -72t-91.5 -27zM510 698h72l-160 -300h-72zM178 300h72l-160 -300h-72zM477 64h-163v59l142 212h82v-223h47v-48h-47v-64h-61v64zM477 112v170h-3l-114 -170h117z" />
<glyph unicode="&#xbf;" d="M299 -194q-48 0 -86.5 13.5t-65.5 38t-42 59.5t-15 78q0 47 17 82.5t44 60.5t61.5 40.5t69.5 21.5v101h79v-157q-86 -4 -135 -37.5t-49 -101.5v-14q0 -56 33.5 -84t91.5 -28q60 0 96 33t50 84l75 -28q-10 -33 -28 -62.5t-45.5 -51.5t-65 -35t-85.5 -13zM318 387 q-41 0 -57.5 17t-16.5 43v18q0 26 16.5 43t57.5 17t57.5 -17t16.5 -43v-18q0 -26 -16.5 -43t-57.5 -17z" />
<glyph unicode="&#xc0;" d="M481 0l-59 199h-245l-59 -199h-87l214 698h111l214 -698h-89zM304 609h-9l-98 -337h205zM187 914l73 35l85 -170l-52 -24z" />
<glyph unicode="&#xc1;" d="M481 0l-59 199h-245l-59 -199h-87l214 698h111l214 -698h-89zM304 609h-9l-98 -337h205zM307 755l-52 24l85 170l73 -35z" />
<glyph unicode="&#xc2;" d="M481 0l-59 199h-245l-59 -199h-87l214 698h111l214 -698h-89zM304 609h-9l-98 -337h205zM350 935l111 -143l-45 -31l-117 117l-117 -117l-43 31l111 143h100z" />
<glyph unicode="&#xc3;" d="M481 0l-59 199h-245l-59 -199h-87l214 698h111l214 -698h-89zM304 609h-9l-98 -337h205zM373 782q-26 0 -45 9t-35 17q-24 13 -40.5 18.5t-29.5 5.5q-17 0 -30 -7t-28 -20l-33 40q14 20 37 36.5t58 16.5q26 0 45 -9t35 -17q24 -13 40.5 -18.5t29.5 -5.5q17 0 30 7t28 20 l33 -40q-14 -20 -37 -36.5t-58 -16.5z" />
<glyph unicode="&#xc4;" d="M481 0l-59 199h-245l-59 -199h-87l214 698h111l214 -698h-89zM304 609h-9l-98 -337h205zM207 788q-31 0 -44 13t-13 33v14q0 20 13 33t44 13t44 -13t13 -33v-14q0 -20 -13 -33t-44 -13zM393 788q-31 0 -44 13t-13 33v14q0 20 13 33t44 13t44 -13t13 -33v-14 q0 -20 -13 -33t-44 -13z" />
<glyph unicode="&#xc5;" d="M481 0l-59 199h-245l-59 -199h-87l214 698h111l214 -698h-89zM304 609h-9l-98 -337h205zM300 746q-24 0 -45.5 8.5t-37 24t-24.5 36.5t-9 46t9 46t24.5 36.5t37 24t45.5 8.5t45.5 -8.5t37 -24t24.5 -36.5t9 -46t-9 -46t-24.5 -36.5t-37 -24t-45.5 -8.5zM300 795 q27 0 42.5 14.5t15.5 40.5v22q0 26 -15.5 40.5t-42.5 14.5t-42.5 -14.5t-15.5 -40.5v-22q0 -26 15.5 -40.5t42.5 -14.5z" />
<glyph unicode="&#xc6;" d="M312 201h-152l-56 -201h-84l206 698h334v-69h-168v-241h156v-69h-156v-250h168v-69h-248v201zM281 638l-103 -368h134v368h-31z" />
<glyph unicode="&#xc7;" d="M323 637q-83 0 -123.5 -63t-40.5 -168v-114q0 -105 40.5 -168t123.5 -63q32 0 54.5 9t39 24.5t28.5 36t21 43.5l72 -33q-13 -28 -29.5 -55t-41 -48.5t-58 -35t-79.5 -14.5l-9 -49l3 -3q19 6 39 6q29 0 48.5 -17t19.5 -49q0 -21 -9 -37t-24.5 -26t-35.5 -15t-42 -5 q-41 0 -64.5 13.5t-34.5 27.5l38 41q9 -11 24 -19.5t37 -8.5q19 0 31.5 7.5t12.5 23.5q0 14 -13 24.5t-55 16.5l-28 4l13 68q-107 15 -159 106t-52 252q0 175 62.5 268t190.5 93q48 0 83 -13t60 -35t42 -49.5t30 -55.5l-72 -33q-9 23 -21 43.5t-28.5 36t-39 24.5t-54.5 9z " />
<glyph unicode="&#xc8;" d="M90 0v698h430v-73h-346v-235h334v-73h-334v-244h346v-73h-430zM192 914l73 35l85 -170l-52 -24z" />
<glyph unicode="&#xc9;" d="M90 0v698h430v-73h-346v-235h334v-73h-334v-244h346v-73h-430zM312 755l-52 24l85 170l73 -35z" />
<glyph unicode="&#xca;" d="M90 0v698h430v-73h-346v-235h334v-73h-334v-244h346v-73h-430zM355 935l111 -143l-45 -31l-117 117l-117 -117l-43 31l111 143h100z" />
<glyph unicode="&#xcb;" d="M90 0v698h430v-73h-346v-235h334v-73h-334v-244h346v-73h-430zM212 788q-31 0 -44 13t-13 33v14q0 20 13 33t44 13t44 -13t13 -33v-14q0 -20 -13 -33t-44 -13zM398 788q-31 0 -44 13t-13 33v14q0 20 13 33t44 13t44 -13t13 -33v-14q0 -20 -13 -33t-44 -13z" />
<glyph unicode="&#xcc;" d="M84 0v67h174v564h-174v67h432v-67h-174v-564h174v-67h-432zM187 914l73 35l85 -170l-52 -24z" />
<glyph unicode="&#xcd;" d="M84 0v67h174v564h-174v67h432v-67h-174v-564h174v-67h-432zM307 755l-52 24l85 170l73 -35z" />
<glyph unicode="&#xce;" d="M84 0v67h174v564h-174v67h432v-67h-174v-564h174v-67h-432zM350 935l111 -143l-45 -31l-117 117l-117 -117l-43 31l111 143h100z" />
<glyph unicode="&#xcf;" d="M84 0v67h174v564h-174v67h432v-67h-174v-564h174v-67h-432zM207 788q-31 0 -44 13t-13 33v14q0 20 13 33t44 13t44 -13t13 -33v-14q0 -20 -13 -33t-44 -13zM393 788q-31 0 -44 13t-13 33v14q0 20 13 33t44 13t44 -13t13 -33v-14q0 -20 -13 -33t-44 -13z" />
<glyph unicode="&#xd0;" d="M102 336h-80v64h80v298h188q128 0 191 -88t63 -261t-63 -261t-191 -88h-188v336zM286 73q84 0 126.5 58t42.5 164v108q0 106 -42.5 164t-126.5 58h-100v-225h141v-64h-141v-263h100z" />
<glyph unicode="&#xd1;" d="M163 588h-7v-588h-76v698h119l238 -588h7v588h76v-698h-119zM373 782q-26 0 -45 9t-35 17q-24 13 -40.5 18.5t-29.5 5.5q-17 0 -30 -7t-28 -20l-33 40q14 20 37 36.5t58 16.5q26 0 45 -9t35 -17q24 -13 40.5 -18.5t29.5 -5.5q17 0 30 7t28 20l33 -40q-14 -20 -37 -36.5 t-58 -16.5z" />
<glyph unicode="&#xd2;" d="M300 -12q-64 0 -110 24.5t-76 70.5t-44 113t-14 153q0 85 14 152.5t44 113.5t76 70.5t110 24.5t110 -24.5t76 -70.5t44 -113.5t14 -152.5q0 -86 -14 -153t-44 -113t-76 -70.5t-110 -24.5zM300 61q42 0 71 16.5t48 46.5t27.5 72.5t8.5 95.5v114q0 52 -8.5 95t-27.5 73 t-48 46.5t-71 16.5t-71 -16.5t-48 -46.5t-27.5 -73t-8.5 -95v-114q0 -53 8.5 -95.5t27.5 -72.5t48 -46.5t71 -16.5zM187 914l73 35l85 -170l-52 -24z" />
<glyph unicode="&#xd3;" d="M300 -12q-64 0 -110 24.5t-76 70.5t-44 113t-14 153q0 85 14 152.5t44 113.5t76 70.5t110 24.5t110 -24.5t76 -70.5t44 -113.5t14 -152.5q0 -86 -14 -153t-44 -113t-76 -70.5t-110 -24.5zM300 61q42 0 71 16.5t48 46.5t27.5 72.5t8.5 95.5v114q0 52 -8.5 95t-27.5 73 t-48 46.5t-71 16.5t-71 -16.5t-48 -46.5t-27.5 -73t-8.5 -95v-114q0 -53 8.5 -95.5t27.5 -72.5t48 -46.5t71 -16.5zM307 755l-52 24l85 170l73 -35z" />
<glyph unicode="&#xd4;" d="M300 -12q-64 0 -110 24.5t-76 70.5t-44 113t-14 153q0 85 14 152.5t44 113.5t76 70.5t110 24.5t110 -24.5t76 -70.5t44 -113.5t14 -152.5q0 -86 -14 -153t-44 -113t-76 -70.5t-110 -24.5zM300 61q42 0 71 16.5t48 46.5t27.5 72.5t8.5 95.5v114q0 52 -8.5 95t-27.5 73 t-48 46.5t-71 16.5t-71 -16.5t-48 -46.5t-27.5 -73t-8.5 -95v-114q0 -53 8.5 -95.5t27.5 -72.5t48 -46.5t71 -16.5zM350 935l111 -143l-45 -31l-117 117l-117 -117l-43 31l111 143h100z" />
<glyph unicode="&#xd5;" d="M300 -12q-64 0 -110 24.5t-76 70.5t-44 113t-14 153q0 85 14 152.5t44 113.5t76 70.5t110 24.5t110 -24.5t76 -70.5t44 -113.5t14 -152.5q0 -86 -14 -153t-44 -113t-76 -70.5t-110 -24.5zM300 61q42 0 71 16.5t48 46.5t27.5 72.5t8.5 95.5v114q0 52 -8.5 95t-27.5 73 t-48 46.5t-71 16.5t-71 -16.5t-48 -46.5t-27.5 -73t-8.5 -95v-114q0 -53 8.5 -95.5t27.5 -72.5t48 -46.5t71 -16.5zM373 782q-26 0 -45 9t-35 17q-24 13 -40.5 18.5t-29.5 5.5q-17 0 -30 -7t-28 -20l-33 40q14 20 37 36.5t58 16.5q26 0 45 -9t35 -17q24 -13 40.5 -18.5 t29.5 -5.5q17 0 30 7t28 20l33 -40q-14 -20 -37 -36.5t-58 -16.5z" />
<glyph unicode="&#xd6;" d="M300 -12q-64 0 -110 24.5t-76 70.5t-44 113t-14 153q0 85 14 152.5t44 113.5t76 70.5t110 24.5t110 -24.5t76 -70.5t44 -113.5t14 -152.5q0 -86 -14 -153t-44 -113t-76 -70.5t-110 -24.5zM300 61q42 0 71 16.5t48 46.5t27.5 72.5t8.5 95.5v114q0 52 -8.5 95t-27.5 73 t-48 46.5t-71 16.5t-71 -16.5t-48 -46.5t-27.5 -73t-8.5 -95v-114q0 -53 8.5 -95.5t27.5 -72.5t48 -46.5t71 -16.5zM207 788q-31 0 -44 13t-13 33v14q0 20 13 33t44 13t44 -13t13 -33v-14q0 -20 -13 -33t-44 -13zM393 788q-31 0 -44 13t-13 33v14q0 20 13 33t44 13t44 -13 t13 -33v-14q0 -20 -13 -33t-44 -13z" />
<glyph unicode="&#xd7;" d="M300 256l-163 -163l-49 49l163 163l-163 163l49 49l163 -163l163 163l49 -49l-163 -163l163 -163l-49 -49z" />
<glyph unicode="&#xd8;" d="M300 -12q-91 0 -146 48l-47 -80l-60 36l60 102q-26 46 -38.5 110t-12.5 145q0 85 14 152.5t44 113.5t76 70.5t110 24.5q90 0 146 -48l47 80l60 -36l-60 -102q26 -46 38.5 -110t12.5 -145q0 -86 -14 -153t-44 -113t-76 -70.5t-110 -24.5zM145 292q0 -34 3 -63.5t11 -54.5 l248 417q-19 22 -45.5 34t-61.5 12q-42 0 -71 -16.5t-48 -46.5t-27.5 -73t-8.5 -95v-114zM300 61q42 0 71 16.5t48 46.5t27.5 72.5t8.5 95.5v114q0 34 -3 63.5t-11 54.5l-248 -417q19 -22 45.5 -34t61.5 -12z" />
<glyph unicode="&#xd9;" d="M164 698v-419q0 -51 3 -91t16 -68.5t40.5 -43.5t76.5 -15t76.5 15t40.5 43.5t16 68.5t3 91v419h84v-399q0 -78 -7.5 -136t-31 -97t-67 -58.5t-114.5 -19.5t-114.5 19.5t-67 58.5t-31 97t-7.5 136v399h84zM187 914l73 35l85 -170l-52 -24z" />
<glyph unicode="&#xda;" d="M164 698v-419q0 -51 3 -91t16 -68.5t40.5 -43.5t76.5 -15t76.5 15t40.5 43.5t16 68.5t3 91v419h84v-399q0 -78 -7.5 -136t-31 -97t-67 -58.5t-114.5 -19.5t-114.5 19.5t-67 58.5t-31 97t-7.5 136v399h84zM307 755l-52 24l85 170l73 -35z" />
<glyph unicode="&#xdb;" d="M164 698v-419q0 -51 3 -91t16 -68.5t40.5 -43.5t76.5 -15t76.5 15t40.5 43.5t16 68.5t3 91v419h84v-399q0 -78 -7.5 -136t-31 -97t-67 -58.5t-114.5 -19.5t-114.5 19.5t-67 58.5t-31 97t-7.5 136v399h84zM350 935l111 -143l-45 -31l-117 117l-117 -117l-43 31l111 143 h100z" />
<glyph unicode="&#xdc;" d="M164 698v-419q0 -51 3 -91t16 -68.5t40.5 -43.5t76.5 -15t76.5 15t40.5 43.5t16 68.5t3 91v419h84v-399q0 -78 -7.5 -136t-31 -97t-67 -58.5t-114.5 -19.5t-114.5 19.5t-67 58.5t-31 97t-7.5 136v399h84zM207 788q-31 0 -44 13t-13 33v14q0 20 13 33t44 13t44 -13t13 -33 v-14q0 -20 -13 -33t-44 -13zM393 788q-31 0 -44 13t-13 33v14q0 20 13 33t44 13t44 -13t13 -33v-14q0 -20 -13 -33t-44 -13z" />
<glyph unicode="&#xdd;" d="M258 0v274l-241 424h96l100 -182l85 -159h4l87 159l100 182h94l-241 -424v-274h-84zM307 755l-52 24l85 170l73 -35z" />
<glyph unicode="&#xde;" d="M90 0v698h84v-145h170q97 0 148 -53.5t51 -145.5t-51 -145.5t-148 -53.5h-170v-155h-84zM174 228h170q53 0 82.5 26t29.5 74v52q0 48 -29.5 74t-82.5 26h-170v-252z" />
<glyph unicode="&#xdf;" d="M102 0v622q0 52 27.5 85t86.5 33h137v-69h-171v-155h343v-79l-173 -225q103 -7 161.5 -55t58.5 -143q0 -52 -18.5 -92t-52.5 -67t-82.5 -41t-108.5 -14h-66v68h66q90 0 133.5 32t43.5 103v25q0 67 -46.5 95.5t-148.5 28.5h-16v68l176 228h-270v-448h-80z" />
<glyph unicode="&#xe0;" d="M495 0q-47 0 -67 24t-25 60h-5q-17 -45 -54.5 -70.5t-100.5 -25.5q-81 0 -129 42t-48 115q0 72 52.5 111t169.5 39h110v51q0 57 -32 85.5t-91 28.5q-52 0 -85 -20.5t-53 -55.5l-54 40q10 20 27 39t42 33.5t57 23t71 8.5q91 0 144.5 -46t53.5 -128v-284h72v-70h-55z M257 55q31 0 56.5 7.5t44.5 20t29.5 30t10.5 37.5v85h-110q-72 0 -105 -20t-33 -58v-21q0 -40 28.5 -60.5t78.5 -20.5zM171 744l73 35l85 -170l-52 -24z" />
<glyph unicode="&#xe1;" d="M495 0q-47 0 -67 24t-25 60h-5q-17 -45 -54.5 -70.5t-100.5 -25.5q-81 0 -129 42t-48 115q0 72 52.5 111t169.5 39h110v51q0 57 -32 85.5t-91 28.5q-52 0 -85 -20.5t-53 -55.5l-54 40q10 20 27 39t42 33.5t57 23t71 8.5q91 0 144.5 -46t53.5 -128v-284h72v-70h-55z M257 55q31 0 56.5 7.5t44.5 20t29.5 30t10.5 37.5v85h-110q-72 0 -105 -20t-33 -58v-21q0 -40 28.5 -60.5t78.5 -20.5zM291 585l-52 24l85 170l73 -35z" />
<glyph unicode="&#xe2;" d="M495 0q-47 0 -67 24t-25 60h-5q-17 -45 -54.5 -70.5t-100.5 -25.5q-81 0 -129 42t-48 115q0 72 52.5 111t169.5 39h110v51q0 57 -32 85.5t-91 28.5q-52 0 -85 -20.5t-53 -55.5l-54 40q10 20 27 39t42 33.5t57 23t71 8.5q91 0 144.5 -46t53.5 -128v-284h72v-70h-55z M257 55q31 0 56.5 7.5t44.5 20t29.5 30t10.5 37.5v85h-110q-72 0 -105 -20t-33 -58v-21q0 -40 28.5 -60.5t78.5 -20.5zM334 765l111 -143l-45 -31l-117 117l-117 -117l-43 31l111 143h100z" />
<glyph unicode="&#xe3;" d="M495 0q-47 0 -67 24t-25 60h-5q-17 -45 -54.5 -70.5t-100.5 -25.5q-81 0 -129 42t-48 115q0 72 52.5 111t169.5 39h110v51q0 57 -32 85.5t-91 28.5q-52 0 -85 -20.5t-53 -55.5l-54 40q10 20 27 39t42 33.5t57 23t71 8.5q91 0 144.5 -46t53.5 -128v-284h72v-70h-55z M257 55q31 0 56.5 7.5t44.5 20t29.5 30t10.5 37.5v85h-110q-72 0 -105 -20t-33 -58v-21q0 -40 28.5 -60.5t78.5 -20.5zM357 612q-26 0 -45 9t-35 17q-24 13 -40.5 18.5t-29.5 5.5q-17 0 -30 -7t-28 -20l-33 40q14 20 37 36.5t58 16.5q26 0 45 -9t35 -17q24 -13 40.5 -18.5 t29.5 -5.5q17 0 30 7t28 20l33 -40q-14 -20 -37 -36.5t-58 -16.5z" />
<glyph unicode="&#xe4;" d="M495 0q-47 0 -67 24t-25 60h-5q-17 -45 -54.5 -70.5t-100.5 -25.5q-81 0 -129 42t-48 115q0 72 52.5 111t169.5 39h110v51q0 57 -32 85.5t-91 28.5q-52 0 -85 -20.5t-53 -55.5l-54 40q10 20 27 39t42 33.5t57 23t71 8.5q91 0 144.5 -46t53.5 -128v-284h72v-70h-55z M257 55q31 0 56.5 7.5t44.5 20t29.5 30t10.5 37.5v85h-110q-72 0 -105 -20t-33 -58v-21q0 -40 28.5 -60.5t78.5 -20.5zM191 618q-31 0 -44 13t-13 33v14q0 20 13 33t44 13t44 -13t13 -33v-14q0 -20 -13 -33t-44 -13zM377 618q-31 0 -44 13t-13 33v14q0 20 13 33t44 13 t44 -13t13 -33v-14q0 -20 -13 -33t-44 -13z" />
<glyph unicode="&#xe5;" d="M495 0q-47 0 -67 24t-25 60h-5q-17 -45 -54.5 -70.5t-100.5 -25.5q-81 0 -129 42t-48 115q0 72 52.5 111t169.5 39h110v51q0 57 -32 85.5t-91 28.5q-52 0 -85 -20.5t-53 -55.5l-54 40q10 20 27 39t42 33.5t57 23t71 8.5q91 0 144.5 -46t53.5 -128v-284h72v-70h-55z M257 55q31 0 56.5 7.5t44.5 20t29.5 30t10.5 37.5v85h-110q-72 0 -105 -20t-33 -58v-21q0 -40 28.5 -60.5t78.5 -20.5zM284 576q-24 0 -45.5 8.5t-37 24t-24.5 36.5t-9 46t9 46t24.5 36.5t37 24t45.5 8.5t45.5 -8.5t37 -24t24.5 -36.5t9 -46t-9 -46t-24.5 -36.5t-37 -24 t-45.5 -8.5zM284 625q27 0 42.5 14.5t15.5 40.5v22q0 26 -15.5 40.5t-42.5 14.5t-42.5 -14.5t-15.5 -40.5v-22q0 -26 15.5 -40.5t42.5 -14.5z" />
<glyph unicode="&#xe6;" d="M141 -12q-57 0 -94 38t-37 112q0 78 45.5 117.5t132.5 39.5h63v53q0 67 -21.5 93.5t-59.5 26.5t-59.5 -22t-35.5 -57l-53 33q8 20 21.5 39t32 34t43 24t54.5 9q45 0 76 -20t48 -58h3q20 43 52.5 60.5t71.5 17.5q78 0 118 -59.5t40 -176.5v-54h-258v-25q0 -71 24.5 -116 t71.5 -45q19 0 34.5 7.5t27 20t20 28.5t14.5 33l58 -27q-8 -23 -21.5 -45.5t-33 -40.5t-45 -29t-56.5 -11q-51 0 -88 30t-58 84h-3q-14 -59 -47.5 -86.5t-80.5 -27.5zM155 50q24 0 42 8.5t30 23t18 33t6 39.5v84h-52q-55 0 -85.5 -20t-30.5 -66v-15q0 -41 16 -64t56 -23z M420 470q-46 0 -71 -34.5t-25 -106.5v-34h192v34q0 72 -25 106.5t-71 34.5z" />
<glyph unicode="&#xe7;" d="M317 528q75 0 122 -33t69 -86l-64 -34q-14 40 -46.5 62t-80.5 22q-35 0 -62.5 -11.5t-46.5 -32.5t-28.5 -50t-9.5 -63v-88q0 -34 9.5 -63t28.5 -50t47 -32.5t64 -11.5q52 0 86 24t54 66l57 -39q-23 -51 -69 -84.5t-121 -35.5l-10 -49l3 -3q19 6 39 6q29 0 48.5 -17 t19.5 -49q0 -21 -9 -37t-24.5 -26t-35.5 -15t-42 -5q-41 0 -64.5 13.5t-34.5 27.5l38 41q9 -11 24 -19.5t37 -8.5q19 0 31.5 7.5t12.5 23.5q0 14 -13 24.5t-55 16.5l-28 4l14 68q-92 14 -142.5 85t-50.5 182q0 61 16 111t46 85.5t73 54.5t98 19z" />
<glyph unicode="&#xe8;" d="M309 -12q-56 0 -100.5 19t-76 54.5t-48.5 85t-17 110.5q0 62 17.5 112t48.5 85.5t74.5 54.5t96.5 19q52 0 94.5 -19t72.5 -52.5t46 -79.5t16 -101v-38h-382v-24q0 -34 11 -63t31.5 -50t50 -32.5t65.5 -11.5q52 0 90 24t58 66l59 -40q-23 -52 -76.5 -85.5t-130.5 -33.5z M304 462q-33 0 -61 -12t-48.5 -33t-32 -49.5t-11.5 -62.5v-7h296v11q0 34 -10.5 62t-29 48.5t-45 31.5t-58.5 11zM189 744l73 35l85 -170l-52 -24z" />
<glyph unicode="&#xe9;" d="M309 -12q-56 0 -100.5 19t-76 54.5t-48.5 85t-17 110.5q0 62 17.5 112t48.5 85.5t74.5 54.5t96.5 19q52 0 94.5 -19t72.5 -52.5t46 -79.5t16 -101v-38h-382v-24q0 -34 11 -63t31.5 -50t50 -32.5t65.5 -11.5q52 0 90 24t58 66l59 -40q-23 -52 -76.5 -85.5t-130.5 -33.5z M304 462q-33 0 -61 -12t-48.5 -33t-32 -49.5t-11.5 -62.5v-7h296v11q0 34 -10.5 62t-29 48.5t-45 31.5t-58.5 11zM309 585l-52 24l85 170l73 -35z" />
<glyph unicode="&#xea;" d="M309 -12q-56 0 -100.5 19t-76 54.5t-48.5 85t-17 110.5q0 62 17.5 112t48.5 85.5t74.5 54.5t96.5 19q52 0 94.5 -19t72.5 -52.5t46 -79.5t16 -101v-38h-382v-24q0 -34 11 -63t31.5 -50t50 -32.5t65.5 -11.5q52 0 90 24t58 66l59 -40q-23 -52 -76.5 -85.5t-130.5 -33.5z M304 462q-33 0 -61 -12t-48.5 -33t-32 -49.5t-11.5 -62.5v-7h296v11q0 34 -10.5 62t-29 48.5t-45 31.5t-58.5 11zM352 765l111 -143l-45 -31l-117 117l-117 -117l-43 31l111 143h100z" />
<glyph unicode="&#xeb;" d="M309 -12q-56 0 -100.5 19t-76 54.5t-48.5 85t-17 110.5q0 62 17.5 112t48.5 85.5t74.5 54.5t96.5 19q52 0 94.5 -19t72.5 -52.5t46 -79.5t16 -101v-38h-382v-24q0 -34 11 -63t31.5 -50t50 -32.5t65.5 -11.5q52 0 90 24t58 66l59 -40q-23 -52 -76.5 -85.5t-130.5 -33.5z M304 462q-33 0 -61 -12t-48.5 -33t-32 -49.5t-11.5 -62.5v-7h296v11q0 34 -10.5 62t-29 48.5t-45 31.5t-58.5 11zM209 618q-31 0 -44 13t-13 33v14q0 20 13 33t44 13t44 -13t13 -33v-14q0 -20 -13 -33t-44 -13zM395 618q-31 0 -44 13t-13 33v14q0 20 13 33t44 13t44 -13 t13 -33v-14q0 -20 -13 -33t-44 -13z" />
<glyph unicode="&#xec;" d="M106 68h186v380h-186v68h266v-448h174v-68h-440v68zM219 744l73 35l85 -170l-52 -24z" />
<glyph unicode="&#xed;" d="M106 68h186v380h-186v68h266v-448h174v-68h-440v68zM339 585l-52 24l85 170l73 -35z" />
<glyph unicode="&#xee;" d="M106 68h186v380h-186v68h266v-448h174v-68h-440v68zM382 765l111 -143l-45 -31l-117 117l-117 -117l-43 31l111 143h100z" />
<glyph unicode="&#xef;" d="M106 68h186v380h-186v68h266v-448h174v-68h-440v68zM239 618q-31 0 -44 13t-13 33v14q0 20 13 33t44 13t44 -13t13 -33v-14q0 -20 -13 -33t-44 -13zM425 618q-31 0 -44 13t-13 33v14q0 20 13 33t44 13t44 -13t13 -33v-14q0 -20 -13 -33t-44 -13z" />
<glyph unicode="&#xf0;" d="M459 708l-87 -61q31 -31 60.5 -70t52 -86t36 -103.5t13.5 -121.5q0 -140 -62 -209t-169 -69q-56 0 -100 18t-74.5 52t-46.5 81.5t-16 106.5t16 106.5t44.5 81.5t67.5 52t86 18q61 0 101 -28t64 -68l4 2q-25 62 -58.5 110t-75.5 88l-99 -70l-38 45l92 64q-33 26 -69 49 t-74 44h126q17 -11 35.5 -23.5t38.5 -28.5l94 65zM300 57q67 0 108 38t41 116v70q0 78 -41 116t-108 38t-108 -38t-41 -116v-70q0 -78 41 -116t108 -38z" />
<glyph unicode="&#xf1;" d="M98 0v516h80v-84h4q8 19 20 36.5t29.5 30.5t41.5 21t56 8q81 0 130 -51.5t49 -145.5v-331h-80v317q0 71 -31 105.5t-91 34.5q-24 0 -47 -6t-41 -18t-29 -31t-11 -44v-358h-80zM376 612q-26 0 -45 9t-35 17q-24 13 -40.5 18.5t-29.5 5.5q-17 0 -30 -7t-28 -20l-33 40 q14 20 37 36.5t58 16.5q26 0 45 -9t35 -17q24 -13 40.5 -18.5t29.5 -5.5q17 0 30 7t28 20l33 -40q-14 -20 -37 -36.5t-58 -16.5z" />
<glyph unicode="&#xf2;" d="M300 -12q-54 0 -97.5 19t-74 54.5t-46.5 85t-16 111.5q0 61 16 111t46.5 85.5t74 54.5t97.5 19t97.5 -19t74 -54.5t46.5 -85.5t16 -111q0 -62 -16 -111.5t-46.5 -85t-74 -54.5t-97.5 -19zM300 57q67 0 108 40t41 124v74q0 84 -41 124t-108 40t-108 -40t-41 -124v-74 q0 -84 41 -124t108 -40zM187 744l73 35l85 -170l-52 -24z" />
<glyph unicode="&#xf3;" d="M300 -12q-54 0 -97.5 19t-74 54.5t-46.5 85t-16 111.5q0 61 16 111t46.5 85.5t74 54.5t97.5 19t97.5 -19t74 -54.5t46.5 -85.5t16 -111q0 -62 -16 -111.5t-46.5 -85t-74 -54.5t-97.5 -19zM300 57q67 0 108 40t41 124v74q0 84 -41 124t-108 40t-108 -40t-41 -124v-74 q0 -84 41 -124t108 -40zM307 585l-52 24l85 170l73 -35z" />
<glyph unicode="&#xf4;" d="M300 -12q-54 0 -97.5 19t-74 54.5t-46.5 85t-16 111.5q0 61 16 111t46.5 85.5t74 54.5t97.5 19t97.5 -19t74 -54.5t46.5 -85.5t16 -111q0 -62 -16 -111.5t-46.5 -85t-74 -54.5t-97.5 -19zM300 57q67 0 108 40t41 124v74q0 84 -41 124t-108 40t-108 -40t-41 -124v-74 q0 -84 41 -124t108 -40zM350 765l111 -143l-45 -31l-117 117l-117 -117l-43 31l111 143h100z" />
<glyph unicode="&#xf5;" d="M300 -12q-54 0 -97.5 19t-74 54.5t-46.5 85t-16 111.5q0 61 16 111t46.5 85.5t74 54.5t97.5 19t97.5 -19t74 -54.5t46.5 -85.5t16 -111q0 -62 -16 -111.5t-46.5 -85t-74 -54.5t-97.5 -19zM300 57q67 0 108 40t41 124v74q0 84 -41 124t-108 40t-108 -40t-41 -124v-74 q0 -84 41 -124t108 -40zM373 612q-26 0 -45 9t-35 17q-24 13 -40.5 18.5t-29.5 5.5q-17 0 -30 -7t-28 -20l-33 40q14 20 37 36.5t58 16.5q26 0 45 -9t35 -17q24 -13 40.5 -18.5t29.5 -5.5q17 0 30 7t28 20l33 -40q-14 -20 -37 -36.5t-58 -16.5z" />
<glyph unicode="&#xf6;" d="M300 -12q-54 0 -97.5 19t-74 54.5t-46.5 85t-16 111.5q0 61 16 111t46.5 85.5t74 54.5t97.5 19t97.5 -19t74 -54.5t46.5 -85.5t16 -111q0 -62 -16 -111.5t-46.5 -85t-74 -54.5t-97.5 -19zM300 57q67 0 108 40t41 124v74q0 84 -41 124t-108 40t-108 -40t-41 -124v-74 q0 -84 41 -124t108 -40zM207 618q-31 0 -44 13t-13 33v14q0 20 13 33t44 13t44 -13t13 -33v-14q0 -20 -13 -33t-44 -13zM393 618q-31 0 -44 13t-13 33v14q0 20 13 33t44 13t44 -13t13 -33v-14q0 -20 -13 -33t-44 -13z" />
<glyph unicode="&#xf7;" d="M62 271v68h476v-68h-476zM300 52q-35 0 -48.5 14t-13.5 34v22q0 20 13.5 34t48.5 14t48.5 -14t13.5 -34v-22q0 -20 -13.5 -34t-48.5 -14zM300 440q-35 0 -48.5 14t-13.5 34v22q0 20 13.5 34t48.5 14t48.5 -14t13.5 -34v-22q0 -20 -13.5 -34t-48.5 -14z" />
<glyph unicode="&#xf8;" d="M47 -6l69 84q-24 35 -37 80.5t-13 99.5q0 61 16 111t46.5 85.5t74 54.5t97.5 19q44 0 80 -13t65 -36l63 77l45 -34l-69 -84q24 -35 37 -80.5t13 -99.5q0 -62 -16 -111.5t-46.5 -85t-74 -54.5t-97.5 -19q-44 0 -80 13t-65 36l-63 -77zM300 459q-67 0 -108 -40t-41 -124 v-74q0 -50 15 -83l235 287q-37 34 -101 34zM300 57q67 0 108 40t41 124v74q0 50 -15 83l-235 -287q37 -34 101 -34z" />
<glyph unicode="&#xf9;" d="M422 84h-4q-8 -19 -20 -36.5t-29.5 -30.5t-41.5 -21t-56 -8q-81 0 -130 51.5t-49 145.5v331h80v-317q0 -71 31 -105.5t91 -34.5q24 0 47 6t41 18t29 30.5t11 44.5v358h80v-516h-80v84zM185 744l73 35l85 -170l-52 -24z" />
<glyph unicode="&#xfa;" d="M422 84h-4q-8 -19 -20 -36.5t-29.5 -30.5t-41.5 -21t-56 -8q-81 0 -130 51.5t-49 145.5v331h80v-317q0 -71 31 -105.5t91 -34.5q24 0 47 6t41 18t29 30.5t11 44.5v358h80v-516h-80v84zM305 585l-52 24l85 170l73 -35z" />
<glyph unicode="&#xfb;" d="M422 84h-4q-8 -19 -20 -36.5t-29.5 -30.5t-41.5 -21t-56 -8q-81 0 -130 51.5t-49 145.5v331h80v-317q0 -71 31 -105.5t91 -34.5q24 0 47 6t41 18t29 30.5t11 44.5v358h80v-516h-80v84zM348 765l111 -143l-45 -31l-117 117l-117 -117l-43 31l111 143h100z" />
<glyph unicode="&#xfc;" d="M422 84h-4q-8 -19 -20 -36.5t-29.5 -30.5t-41.5 -21t-56 -8q-81 0 -130 51.5t-49 145.5v331h80v-317q0 -71 31 -105.5t91 -34.5q24 0 47 6t41 18t29 30.5t11 44.5v358h80v-516h-80v84zM205 618q-31 0 -44 13t-13 33v14q0 20 13 33t44 13t44 -13t13 -33v-14q0 -20 -13 -33 t-44 -13zM391 618q-31 0 -44 13t-13 33v14q0 20 13 33t44 13t44 -13t13 -33v-14q0 -20 -13 -33t-44 -13z" />
<glyph unicode="&#xfd;" d="M467 516h80l-256 -629q-9 -22 -20 -38.5t-26 -27t-36 -16t-50 -5.5h-76v68h120l58 142l-208 506h82l87 -216l77 -196h4l77 196zM307 585l-52 24l85 170l73 -35z" />
<glyph unicode="&#xfe;" d="M95 740h80v-308h4q50 96 159 96q95 0 148.5 -71t53.5 -199t-53.5 -199t-148.5 -71q-109 0 -159 96h-4v-284h-80v940zM307 59q70 0 108.5 42.5t38.5 112.5v88q0 70 -38.5 112.5t-108.5 42.5q-27 0 -51 -7t-42 -20.5t-28.5 -33t-10.5 -45.5v-186q0 -26 10.5 -45.5t28.5 -33 t42 -20.5t51 -7z" />
<glyph unicode="&#xff;" d="M467 516h80l-256 -629q-9 -22 -20 -38.5t-26 -27t-36 -16t-50 -5.5h-76v68h120l58 142l-208 506h82l87 -216l77 -196h4l77 196zM207 618q-31 0 -44 13t-13 33v14q0 20 13 33t44 13t44 -13t13 -33v-14q0 -20 -13 -33t-44 -13zM393 618q-31 0 -44 13t-13 33v14q0 20 13 33 t44 13t44 -13t13 -33v-14q0 -20 -13 -33t-44 -13z" />
<glyph unicode="&#x110;" d="M102 336h-80v64h80v298h188q128 0 191 -88t63 -261t-63 -261t-191 -88h-188v336zM286 73q84 0 126.5 58t42.5 164v108q0 106 -42.5 164t-126.5 58h-100v-225h141v-64h-141v-263h100z" />
<glyph unicode="&#x131;" d="M106 68h186v380h-186v68h266v-448h174v-68h-440v68z" />
<glyph unicode="&#x152;" d="M289 0q-128 0 -190 88t-62 261t62 261t190 88h271v-69h-168v-241h156v-69h-156v-250h168v-69h-271zM312 69v560h-19q-85 0 -128 -59t-43 -167v-108q0 -108 43 -167t128 -59h19z" />
<glyph unicode="&#x153;" d="M176 48q40 0 62.5 35.5t22.5 121.5v106q0 86 -22.5 121.5t-62.5 35.5t-62.5 -35.5t-22.5 -121.5v-106q0 -86 22.5 -121.5t62.5 -35.5zM516 295v34q0 72 -23.5 106.5t-67.5 34.5t-67.5 -34.5t-23.5 -106.5v-34h182zM427 -12q-42 0 -75 22t-56 63h-3q-40 -85 -123 -85 q-40 0 -69 19t-48.5 54.5t-29 85t-9.5 111.5q0 61 9.5 111t29 85.5t48.5 54.5t69 19q44 0 76.5 -23.5t50.5 -70.5h3q22 52 56 73t76 21q75 0 112.5 -59.5t37.5 -176.5v-54h-248v-25q0 -72 24.5 -116.5t70.5 -44.5q18 0 32 7.5t24.5 20t17.5 28.5t13 33l58 -27 q-7 -23 -19.5 -45.5t-30.5 -40.5t-42.5 -29t-54.5 -11z" />
<glyph unicode="&#x178;" d="M258 0v274l-241 424h96l100 -182l85 -159h4l87 159l100 182h94l-241 -424v-274h-84zM207 788q-31 0 -44 13t-13 33v14q0 20 13 33t44 13t44 -13t13 -33v-14q0 -20 -13 -33t-44 -13zM393 788q-31 0 -44 13t-13 33v14q0 20 13 33t44 13t44 -13t13 -33v-14q0 -20 -13 -33 t-44 -13z" />
<glyph unicode="&#x2c6;" d="M350 765l111 -143l-45 -31l-117 117l-117 -117l-43 31l111 143h100z" />
<glyph unicode="&#x2da;" d="M300 576q-24 0 -45.5 8.5t-37 24t-24.5 36.5t-9 46t9 46t24.5 36.5t37 24t45.5 8.5t45.5 -8.5t37 -24t24.5 -36.5t9 -46t-9 -46t-24.5 -36.5t-37 -24t-45.5 -8.5zM300 625q27 0 42.5 14.5t15.5 40.5v22q0 26 -15.5 40.5t-42.5 14.5t-42.5 -14.5t-15.5 -40.5v-22 q0 -26 15.5 -40.5t42.5 -14.5z" />
<glyph unicode="&#x2dc;" d="M373 612q-26 0 -45 9t-35 17q-24 13 -40.5 18.5t-29.5 5.5q-17 0 -30 -7t-28 -20l-33 40q14 20 37 36.5t58 16.5q26 0 45 -9t35 -17q24 -13 40.5 -18.5t29.5 -5.5q17 0 30 7t28 20l33 -40q-14 -20 -37 -36.5t-58 -16.5z" />
<glyph unicode="&#x2000;" horiz-adv-x="488" />
<glyph unicode="&#x2001;" horiz-adv-x="976" />
<glyph unicode="&#x2002;" horiz-adv-x="488" />
<glyph unicode="&#x2003;" horiz-adv-x="976" />
<glyph unicode="&#x2004;" horiz-adv-x="325" />
<glyph unicode="&#x2005;" horiz-adv-x="244" />
<glyph unicode="&#x2006;" horiz-adv-x="162" />
<glyph unicode="&#x2007;" horiz-adv-x="162" />
<glyph unicode="&#x2008;" horiz-adv-x="122" />
<glyph unicode="&#x2009;" horiz-adv-x="195" />
<glyph unicode="&#x200a;" horiz-adv-x="54" />
<glyph unicode="&#x2010;" d="M155 262v84h290v-84h-290z" />
<glyph unicode="&#x2011;" d="M155 262v84h290v-84h-290z" />
<glyph unicode="&#x2012;" d="M155 262v84h290v-84h-290z" />
<glyph unicode="&#x2013;" d="M60 267v74h480v-74h-480z" />
<glyph unicode="&#x2014;" d="M0 267v74h600v-74h-600z" />
<glyph unicode="&#x2018;" d="M310 740h67l-53 -277h-129z" />
<glyph unicode="&#x2019;" d="M276 740h129l-115 -277h-67z" />
<glyph unicode="&#x201a;" d="M257 136h129l-115 -277h-67z" />
<glyph unicode="&#x201c;" d="M197 740h67l-53 -277h-129zM436 740h67l-53 -277h-129z" />
<glyph unicode="&#x201d;" d="M163 740h129l-115 -277h-67zM402 740h129l-115 -277h-67z" />
<glyph unicode="&#x201e;" d="M163 136h129l-115 -277h-67zM402 136h129l-115 -277h-67z" />
<glyph unicode="&#x2022;" d="M300 186q-67 0 -94.5 30t-27.5 74v28q0 44 27.5 74t94.5 30t94.5 -30t27.5 -74v-28q0 -44 -27.5 -74t-94.5 -30z" />
<glyph unicode="&#x2026;" d="M107 -4q-35 0 -49 14.5t-14 36.5v29q0 22 14 36.5t49 14.5t49 -14.5t14 -36.5v-29q0 -22 -14 -36.5t-49 -14.5zM300 -4q-35 0 -49 14.5t-14 36.5v29q0 22 14 36.5t49 14.5t49 -14.5t14 -36.5v-29q0 -22 -14 -36.5t-49 -14.5zM493 -4q-35 0 -49 14.5t-14 36.5v29 q0 22 14 36.5t49 14.5t49 -14.5t14 -36.5v-29q0 -22 -14 -36.5t-49 -14.5z" />
<glyph unicode="&#x202f;" horiz-adv-x="195" />
<glyph unicode="&#x2039;" d="M376 56l-206 174v80l206 174l25 -57l-148 -157l148 -157z" />
<glyph unicode="&#x203a;" d="M199 113l148 157l-148 157l25 57l206 -174v-80l-206 -174z" />
<glyph unicode="&#x2044;" d="M510 698h72l-160 -300h-72zM178 300h72l-160 -300h-72z" />
<glyph unicode="&#x205f;" horiz-adv-x="244" />
<glyph unicode="&#x20ac;" d="M323 -12q-128 0 -190.5 93t-62.5 268t62.5 268t190.5 93q48 0 83 -13t60 -35t42 -49.5t30 -55.5l-70 -32q-9 24 -21 44.5t-28.5 36t-40 24.5t-55.5 9q-72 0 -112 -47t-51 -128h228v-69h-231v-92h231v-69h-228q11 -81 51 -128t112 -47q32 0 55.5 9t40 24.5t28.5 36 t21 44.5l70 -32q-13 -29 -30 -56t-42 -49t-60 -35t-83 -13z" />
<glyph unicode="&#x2122;" d="M102 419v233h-86v46h224v-46h-86v-233h-52zM282 419v279h65l65 -134h3l65 134h62v-279h-48v127l1 83h-4l-79 -156l-79 156h-4l1 -83v-127h-48z" />
<glyph unicode="&#x25fc;" horiz-adv-x="515" d="M0 515h515v-515h-515v515z" />
<glyph unicode="&#xfb01;" d="M108 448h-70v68h70v106q0 52 27.5 85t86.5 33h113v-68h-147v-156h314v-516h-80v448h-234v-448h-80v448zM462 630q-35 0 -49 14.5t-14 36.5v16q0 22 14 36.5t49 14.5t49 -14.5t14 -36.5v-16q0 -22 -14 -36.5t-49 -14.5z" />
<glyph unicode="&#xfb02;" d="M108 448h-70v68h70v106q0 52 27.5 85t86.5 33h123v-68h-157v-156h157v-68h-157v-448h-80v448zM422 740h80v-740h-80v740z" />
<glyph d="M189 413h94v230l-89 -45l-24 44l108 56h68v-285h83v-50h-240v50z" />
<glyph d="M293 357q-52 0 -81 21.5t-45 49.5l47 33q12 -23 29.5 -38t49.5 -15q29 0 45.5 13.5t16.5 36.5v7q0 23 -18 34.5t-51 11.5h-35v50h35q32 0 47.5 12t15.5 29v7q0 20 -15 32t-41 12q-47 0 -72 -41l-42 34q18 26 45 42t71 16q54 0 86 -23.5t32 -63.5q0 -33 -20.5 -52.5 t-49.5 -24.5v-4q32 -5 54 -25t22 -55q0 -45 -34.5 -72t-91.5 -27z" />
<glyph d="M179 58l113 90q54 43 54 90v5q0 19 -13.5 32.5t-39.5 13.5t-41.5 -14.5t-25.5 -40.5l-53 22q11 34 41.5 59.5t83.5 25.5q57 0 85.5 -28.5t28.5 -68.5q0 -42 -26.5 -74t-63.5 -61l-77 -59h180v-50h-246v58z" />
<glyph d="M327 64h-163v59l142 212h82v-223h47v-48h-47v-64h-61v64zM327 112v170h-3l-114 -170h117z" />
<glyph d="M373 782q-26 0 -45 9t-35 17q-24 13 -40.5 18.5t-29.5 5.5q-17 0 -30 -7t-28 -20l-33 40q14 20 37 36.5t58 16.5q26 0 45 -9t35 -17q24 -13 40.5 -18.5t29.5 -5.5q17 0 30 7t28 20l33 -40q-14 -20 -37 -36.5t-58 -16.5z" />
<glyph d="M207 788q-31 0 -44 13t-13 33v14q0 20 13 33t44 13t44 -13t13 -33v-14q0 -20 -13 -33t-44 -13zM393 788q-31 0 -44 13t-13 33v14q0 20 13 33t44 13t44 -13t13 -33v-14q0 -20 -13 -33t-44 -13z" />
<glyph d="M307 755l-52 24l85 170l73 -35z" />
<glyph d="M187 914l73 35l85 -170l-52 -24z" />
<glyph d="M350 935l111 -143l-45 -31l-117 117l-117 -117l-43 31l111 143h100z" />
<glyph d="M300 746q-24 0 -45.5 8.5t-37 24t-24.5 36.5t-9 46t9 46t24.5 36.5t37 24t45.5 8.5t45.5 -8.5t37 -24t24.5 -36.5t9 -46t-9 -46t-24.5 -36.5t-37 -24t-45.5 -8.5zM300 795q27 0 42.5 14.5t15.5 40.5v22q0 26 -15.5 40.5t-42.5 14.5t-42.5 -14.5t-15.5 -40.5v-22 q0 -26 15.5 -40.5t42.5 -14.5z" />
</font>
</defs>
</svg>
