<?xml version="1.0" standalone="no"?>
<!DOCTYPE svg PUBLIC "-//W3C//DTD SVG 1.1//EN" "http://www.w3.org/Graphics/SVG/1.1/DTD/svg11.dtd" >
<svg xmlns="http://www.w3.org/2000/svg" xmlns:xlink="http://www.w3.org/1999/xlink" version="1.1">
<metadata></metadata>
<defs>
<font id="ibm_plex_serifregular" horiz-adv-x="1228" >
<font-face units-per-em="2048" ascent="1638" descent="-410" />
<missing-glyph horiz-adv-x="475" />
<glyph unicode="&#xfb01;" horiz-adv-x="1296" d="M92 0v94h152v862h-152v101h152v59q0 205 121.5 322.5t353.5 117.5q172 0 258 -53t86 -137q0 -51 -31 -83t-78 -32t-73.5 29t-26.5 70q0 72 59 94v4q-29 12 -67.5 20.5t-120.5 8.5q-76 0 -134.5 -26t-98 -70t-60 -105.5t-20.5 -134.5v-84h331l322 24v-987h152v-94h-472v94 h152v862h-485v-862h151v-94h-471z" />
<glyph unicode="&#xfb02;" horiz-adv-x="1296" d="M92 0v94h152v862h-152v101h152v104q0 92 31.5 166t90 124t139.5 77.5t179 27.5q80 0 129 -9t90 -25l170 34v-1462h152v-94h-471v94h151v1338q-43 18 -94 25t-111 7q-135 0 -211.5 -69.5t-76.5 -196.5v-141h229v-101h-229v-862h151v-94h-471z" />
<glyph horiz-adv-x="0" />
<glyph horiz-adv-x="0" />
<glyph unicode="&#xd;" horiz-adv-x="475" />
<glyph unicode=" "  horiz-adv-x="475" />
<glyph unicode="&#x09;" horiz-adv-x="475" />
<glyph unicode="&#xa0;" horiz-adv-x="475" />
<glyph unicode="!" horiz-adv-x="573" d="M160 98v13q0 51 33.5 86.5t93.5 35.5q59 0 93 -35.5t34 -86.5v-13q0 -51 -34 -87t-93 -36t-93 36t-34 87zM203 997v433h168v-433l-49 -620h-70z" />
<glyph unicode="&#x22;" horiz-adv-x="849" d="M172 1346v186h150v-186l-43 -381h-64zM530 1346v186h150v-186l-43 -381h-64z" />
<glyph unicode="#" horiz-adv-x="1423" d="M121 430v100h285l61 369h-266v100h282l74 431h113l-72 -431h322l71 431h115l-72 -431h266v-100h-282l-64 -369h267v-100h-283l-74 -430h-112l71 430h-321l-72 -430h-115l72 430h-266zM518 530h322l63 369h-321z" />
<glyph unicode="$" horiz-adv-x="1212" d="M154 246q0 63 34.5 101t94.5 38q61 0 93 -38t32 -87q0 -88 -89 -127v-6q35 -14 98.5 -26.5t155.5 -14.5v576q-205 53 -310 147t-105 264q0 80 29.5 144.5t84 111.5t130 75t167.5 36v157h107v-157q172 -10 269 -81t97 -175q0 -63 -34.5 -101.5t-94.5 -38.5q-61 0 -93 38 t-32 87q0 88 89 127v7q-29 14 -79 25t-126 15v-526q211 -55 310 -152.5t99 -258.5q0 -172 -103.5 -282t-301.5 -132v-160h-107v156q-193 6 -304 78.5t-111 179.5zM305 1106q0 -102 66.5 -164.5t201.5 -97.5v497q-131 -10 -199.5 -73.5t-68.5 -161.5zM672 90q135 16 200.5 86 t65.5 186q0 111 -67.5 178.5t-198.5 96.5v-547z" />
<glyph unicode="%" horiz-adv-x="1869" d="M133 1049q0 199 87 302t237 103t236.5 -103.5t86.5 -301.5q0 -199 -86.5 -302.5t-236.5 -103.5t-237 103.5t-87 302.5zM281 969q0 -244 176 -244t176 244v159q0 244 -176 244t-176 -244v-159zM381 0l989 1430h123l-989 -1430h-123zM1090 381q0 199 87 302t236 103 q150 0 237 -103t87 -302t-87 -302.5t-237 -103.5t-236.5 103.5t-86.5 302.5zM1237 301q0 -244 176 -244t176 244v160q0 244 -176 244t-176 -244v-160z" />
<glyph unicode="&#x26;" horiz-adv-x="1454" d="M113 360q0 145 83 237.5t218 164.5l-35 39q-66 70 -104.5 149.5t-38.5 175.5q0 150 102 239t280 89q82 0 147.5 -21.5t112 -59.5t72 -91t25.5 -115q0 -63 -28.5 -119.5t-78 -106.5t-115 -93t-139.5 -80l400 -436q35 72 55.5 162t26.5 188h-150v94h418v-94h-164 q-10 -121 -41 -229.5t-80 -192.5l70 -78q45 -47 95 -67.5t138 -20.5v-94h-135q-80 0 -134 23.5t-101 76.5l-29 33q-74 -76 -168 -117t-211 -41q-109 0 -199 26t-154.5 75t-101 120.5t-36.5 163.5zM295 348q0 -127 90 -196.5t231 -69.5q98 0 174 30.5t132 88.5l-451 497 q-102 -63 -139 -140t-37 -175v-35zM399 1122q0 -78 45 -143.5t101 -130.5l12 -14q135 70 200.5 142.5t65.5 158.5v28q0 84 -56 139.5t-157 55.5q-102 0 -156.5 -62.5t-54.5 -152.5v-21z" />
<glyph unicode="'" horiz-adv-x="493" d="M172 1346v186h150v-186l-43 -381h-64z" />
<glyph unicode="(" horiz-adv-x="673" d="M133 639q0 168 44 317.5t114.5 272.5t159 215t176.5 149l51 -61q-84 -63 -151.5 -151.5t-114.5 -195t-72 -225t-25 -243.5v-158q0 -123 25 -242.5t72 -225t114.5 -195t151.5 -152.5l-51 -61q-88 57 -176.5 150t-159 216t-114.5 271.5t-44 318.5z" />
<glyph unicode=")" horiz-adv-x="673" d="M-4 -256q84 63 151.5 152.5t114.5 195t71.5 225t24.5 242.5v158q0 125 -24.5 243.5t-71.5 225t-114.5 194.5t-151.5 152l51 61q88 -57 176 -149t159 -215t115 -272.5t44 -317.5q0 -170 -44 -318.5t-115 -271.5t-159 -216t-176 -150z" />
<glyph unicode="*" horiz-adv-x="905" d="M72 1196l47 143l96 -32l174 -107l-16 -49l-203 14zM172 893l61 82l156 131l41 -31l-76 -188l-59 -84zM377 1427v103h149v-103l-47 -198h-53zM475 1075l41 31l156 -131l61 -82l-123 -90l-59 84zM516 1200l174 107l96 32l48 -143l-99 -31l-203 -14z" />
<glyph unicode="+" d="M135 571v107h422v416h115v-416h422v-107h-422v-415h-115v415h-422z" />
<glyph unicode="," horiz-adv-x="548" d="M92 -279q70 61 117 128t61 126h-4q-57 0 -88 37t-31 84v13q0 53 35 88.5t92 35.5q59 0 93 -38.5t34 -94.5v-18q0 -45 -16 -94t-44 -98.5t-65.5 -92.5t-80.5 -76h-103z" />
<glyph unicode="-" horiz-adv-x="804" d="M135 553v143h535v-143h-535z" />
<glyph unicode="." horiz-adv-x="548" d="M147 98v13q0 51 34 86.5t93 35.5t93 -35.5t34 -86.5v-13q0 -51 -34 -87t-93 -36t-93 36t-34 87z" />
<glyph unicode="/" horiz-adv-x="749" d="M18 -293l531 1825h117l-531 -1825h-117z" />
<glyph unicode="0" d="M104 715q0 362 132.5 550.5t377.5 188.5q246 0 378 -188.5t132 -550.5t-132 -551t-378 -189t-378 188.5t-132 551.5zM297 565q0 -113 17.5 -204t55.5 -154.5t98 -97t146 -33.5t146.5 33.5t98.5 97t55.5 155t17.5 203.5v299q0 113 -17.5 204t-55.5 154.5t-98.5 97.5 t-146.5 34t-146 -34t-98 -97.5t-55.5 -154.5t-17.5 -204v-299z" />
<glyph unicode="1" d="M135 1206l418 224h158v-1338h342v-92h-873v92h355v1196l-369 -170z" />
<glyph unicode="2" d="M125 0v133l465 469q102 102 157.5 204.5t55.5 225.5v45q0 129 -75 204t-208 75q-72 0 -124 -14.5t-83 -32.5v-4q27 -10 50.5 -42t23.5 -77q0 -53 -35 -89t-88 -36q-57 0 -90 37t-33 98q0 51 32 98t86 82t129 56.5t161 21.5q207 0 326.5 -103.5t119.5 -287.5 q0 -92 -26.5 -168t-71.5 -142.5t-105.5 -126t-127.5 -118.5l-388 -342v-8h676v198h103v-356h-930z" />
<glyph unicode="3" d="M133 233q0 61 35 98.5t88 37.5q55 0 89 -36t34 -91q0 -41 -23.5 -74t-50.5 -43v-4q35 -20 91.5 -32.5t133.5 -12.5q160 0 251 70.5t91 205.5v70q0 129 -82.5 201.5t-240.5 72.5h-166v101h154q150 0 227.5 70.5t77.5 176.5v78q0 117 -75 174.5t-200 57.5q-76 0 -132 -12.5 t-89 -32.5v-4q29 -12 51.5 -45t22.5 -74q0 -53 -35 -89t-90 -36t-88 37t-33 98q0 47 28.5 93t81 83t127 59.5t167.5 22.5q94 0 177 -22.5t145.5 -67.5t98 -112.5t35.5 -157.5q0 -70 -25.5 -126.5t-67.5 -97.5t-96 -68.5t-114 -41.5v-8q61 -12 120.5 -40t107 -73t77 -107.5 t29.5 -142.5q0 -96 -37 -173t-104.5 -130t-161.5 -82t-207 -29q-96 0 -174 22.5t-133 59.5t-85 83t-30 93z" />
<glyph unicode="4" d="M84 330v119l682 981h158v-969h206v-131h-206v-330h-168v330h-672zM205 461h551v776h-8z" />
<glyph unicode="5" d="M145 233q0 61 35 98.5t90 37.5t88 -36t33 -89q0 -41 -20.5 -72t-53.5 -43v-8q35 -20 91.5 -32.5t134.5 -12.5q172 0 256 84t84 229v47q0 150 -79 236t-229 86q-98 0 -160.5 -41t-97.5 -94l-110 22l51 785h752v-170h-668l-39 -560l8 -2q41 74 121 127.5t197 53.5 q94 0 175 -28t141.5 -85t95 -142t34.5 -200q0 -98 -38 -181t-107.5 -142.5t-164.5 -92.5t-212 -33q-92 0 -168 22.5t-129 59.5t-82 83t-29 93z" />
<glyph unicode="6" d="M133 545q0 195 59.5 351.5t164 272t244.5 188.5t300 97l27 -84q-131 -25 -238.5 -86t-185.5 -151.5t-125 -205t-60 -245.5l13 -2q16 37 45 74t70.5 65.5t97 47t125.5 18.5q98 0 176 -32t133 -91.5t85 -142t30 -183.5q0 -102 -36 -187t-100.5 -145.5t-152 -94.5 t-189.5 -34q-236 0 -359.5 150.5t-123.5 419.5zM322 408q0 -72 16 -132.5t52 -104.5t91 -69.5t133 -25.5t133.5 25.5t91 69.5t52 104.5t16.5 132.5v36q0 70 -16.5 131.5t-52 105.5t-91 69.5t-133.5 25.5t-133 -25.5t-91 -69.5t-52 -105.5t-16 -131.5v-36z" />
<glyph unicode="7" d="M141 1022v408h940v-123l-551 -1307h-145l573 1260h-714v-238h-103z" />
<glyph unicode="8" d="M123 381q0 78 28.5 140.5t74.5 106.5t105.5 72.5t123.5 38.5v15q-55 8 -107.5 36.5t-92.5 73.5t-63.5 102.5t-23.5 123.5q0 84 32.5 151.5t91 114.5t140.5 72.5t182 25.5t182.5 -25.5t140.5 -72.5t91 -114.5t33 -151.5q0 -66 -23.5 -123.5t-63.5 -102.5t-92.5 -73.5 t-107.5 -36.5v-15q63 -10 122.5 -38.5t106 -72.5t75 -106.5t28.5 -140.5q0 -90 -34 -165t-96.5 -128t-153.5 -83t-208 -30t-208 30t-153.5 83t-96 128t-33.5 165zM309 367q0 -61 20.5 -115.5t58.5 -94.5t95 -62.5t131 -22.5t131.5 22.5t95.5 62.5t58.5 94t20.5 116v43 q0 61 -20.5 115.5t-58.5 94t-95.5 62.5t-131.5 23t-131 -23t-95 -62.5t-58.5 -94t-20.5 -115.5v-43zM352 1065q0 -53 15.5 -101.5t48.5 -85t81.5 -59t116.5 -22.5t117 22.5t82 59t48.5 85t15.5 101.5v29q0 53 -15.5 101t-48.5 85t-82 59.5t-117 22.5t-116.5 -22.5 t-81.5 -59.5t-48.5 -85t-15.5 -101v-29z" />
<glyph unicode="9" d="M135 993q0 102 36 187.5t100.5 145.5t151.5 94t189 34q236 0 360 -150.5t124 -418.5q0 -195 -59.5 -351.5t-164 -272.5t-245 -188.5t-299.5 -97.5l-27 84q131 25 238.5 86.5t185.5 151.5t125 204.5t59 246.5l-12 2q-16 -37 -45 -74t-71 -65.5t-97 -47t-125 -18.5 q-98 0 -176 31.5t-133 91t-85 141.5t-30 184zM322 985q0 -72 16 -132t52 -104t91 -70t133 -26t133.5 26t91 70t52 104t16.5 132v37q0 70 -16.5 131t-52 105.5t-91 70t-133.5 25.5t-133 -25.5t-91 -70t-52 -105.5t-16 -131v-37z" />
<glyph unicode=":" horiz-adv-x="589" d="M167 98v13q0 51 34 86.5t93 35.5t93 -35.5t34 -86.5v-13q0 -51 -34 -87t-93 -36t-93 36t-34 87zM167 946v13q0 51 34 86.5t93 35.5t93 -35.5t34 -86.5v-13q0 -51 -34 -87t-93 -36t-93 36t-34 87z" />
<glyph unicode=";" horiz-adv-x="589" d="M112 -279q70 61 117 128t61 126h-4q-57 0 -88 37t-31 84v13q0 53 35 88.5t92 35.5q59 0 93 -38.5t34 -94.5v-18q0 -45 -16 -94t-44 -98.5t-65.5 -92.5t-80.5 -76h-103zM167 946v13q0 51 34 86.5t93 35.5t93 -35.5t34 -86.5v-13q0 -51 -34 -87t-93 -36t-93 36t-34 87z" />
<glyph unicode="&#x3c;" d="M182 479v131l862 504v-123l-741 -440v-12l741 -441v-123z" />
<glyph unicode="=" d="M135 360v109h959v-109h-959zM135 782v107h959v-107h-959z" />
<glyph unicode="&#x3e;" d="M182 -25v123l742 441v12l-742 440v123l862 -504v-131z" />
<glyph unicode="?" horiz-adv-x="997" d="M86 1196q0 51 33 97t88 82t129 57.5t156 21.5q92 0 169.5 -26.5t133 -75.5t86 -118t30.5 -153q0 -92 -34.5 -166.5t-96 -128t-143.5 -86t-176 -41.5v-239h-113v340q168 6 273.5 80.5t105.5 212.5v47q0 123 -71.5 188.5t-188.5 65.5q-76 0 -125 -13.5t-84 -33.5v-4 q23 -8 48.5 -40t25.5 -77q0 -53 -32 -89t-89 -36t-91 34.5t-34 100.5zM279 98v13q0 51 33.5 86.5t93.5 35.5q59 0 92.5 -35.5t33.5 -86.5v-13q0 -51 -33.5 -87t-92.5 -36t-93 36t-34 87z" />
<glyph unicode="@" horiz-adv-x="1890" d="M164 592q0 190 56 349t157.5 272.5t245 177t319.5 63.5q174 0 318.5 -58.5t248 -165t160.5 -253t57 -324.5q0 -104 -18 -197.5t-59 -163t-105.5 -110.5t-157.5 -41q-106 0 -161.5 49.5t-65.5 128.5h-6q-39 -80 -98.5 -129t-153.5 -49q-70 0 -131 28t-108.5 83t-75 140 t-27.5 200t27.5 200t75 140t108.5 82.5t131 27.5q94 0 149.5 -47t84.5 -112h6l57 141h76v-647q0 -156 121 -156q104 0 156.5 98.5t52.5 305.5v94q0 137 -44 256t-129 206t-208 137t-281 50t-279.5 -55.5t-205.5 -150.5t-128 -224t-44 -279v-120q0 -152 45 -279t129 -218 t202.5 -142.5t268.5 -51.5h461v-61q-104 -14 -217 -24.5t-246 -10.5q-172 0 -312.5 59.5t-241 169t-155.5 265t-55 346.5zM709 489q0 -111 52 -177t163 -66q109 0 163 52t54 151v286q0 98 -54.5 150.5t-162.5 52.5q-111 0 -163 -66.5t-52 -177.5v-205z" />
<glyph unicode="A" horiz-adv-x="1404" d="M33 0v94h108l465 1336h195l463 -1336h108v-94h-483v94h184l-127 371h-557l-127 -371h184v-94h-413zM418 563h497l-239 717h-12z" />
<glyph unicode="B" horiz-adv-x="1372" d="M113 0v94h153v1241h-153v95h684q180 0 281.5 -92.5t101.5 -245.5q0 -76 -22.5 -135.5t-60.5 -102.5t-86 -69.5t-100 -34.5v-7q53 -4 110.5 -26.5t105 -65.5t78 -106.5t30.5 -147.5q0 -90 -27.5 -163.5t-78 -126t-120 -80t-151.5 -27.5h-745zM442 100h353q119 0 185.5 70 t66.5 180v90q0 109 -67 178.5t-185 69.5h-353v-588zM442 788h320q111 0 170 63.5t59 162.5v90q0 98 -59.5 161.5t-169.5 63.5h-320v-541z" />
<glyph unicode="C" horiz-adv-x="1329" d="M102 715q0 178 43 315t120 231.5t185.5 143.5t239.5 49q133 0 222 -44t118 -110h8v130h148v-418h-148v106q0 102 -90 165t-235 63q-109 0 -188 -40t-129 -109t-73.5 -160t-23.5 -191v-248q0 -113 29.5 -203t86 -154.5t138.5 -99.5t186 -35q145 0 243.5 76t143.5 193 l80 -39q-18 -59 -59 -122.5t-103.5 -117t-148.5 -87.5t-195 -34q-135 0 -245.5 51.5t-188.5 147.5t-121 233.5t-43 307.5z" />
<glyph unicode="D" horiz-adv-x="1445" d="M113 0v94h153v1241h-153v95h598q141 0 257.5 -44.5t199.5 -133.5t129 -223t46 -314t-46 -314.5t-129 -223.5t-199.5 -133t-257.5 -44h-598zM442 100h250q104 0 189.5 36t143.5 100.5t90 154.5t32 201v246q0 111 -32 200.5t-90 154t-143 100.5t-190 36h-250v-1229z" />
<glyph unicode="E" horiz-adv-x="1312" d="M113 0v94h153v1241h-153v95h1056v-345h-147v244h-580v-543h406v164h123v-428h-123v164h-406v-586h600v262h148v-362h-1077z" />
<glyph unicode="F" horiz-adv-x="1282" d="M113 0v94h153v1241h-153v95h1056v-345h-147v244h-580v-573h406v164h123v-428h-123v163h-406v-561h195v-94h-524z" />
<glyph unicode="G" horiz-adv-x="1476" d="M102 715q0 178 43 316t123 232.5t193.5 142.5t255.5 48q166 0 256 -46t114 -110h11v132h147v-418h-147v100q0 115 -96.5 174.5t-262.5 59.5q-113 0 -195.5 -36t-137 -101.5t-81 -156.5t-26.5 -204v-262q0 -111 29.5 -202t85 -154.5t133.5 -98.5t172 -35q78 0 145.5 20.5 t116.5 59.5t76.5 96.5t27.5 133.5v190h-254v94h564v-94h-131v-596h-68l-98 199h-8q-16 -41 -49 -81t-81.5 -72t-114 -51.5t-147.5 -19.5q-135 0 -244.5 51.5t-187.5 146.5t-121 232.5t-43 309.5z" />
<glyph unicode="H" horiz-adv-x="1611" d="M113 0v94h153v1241h-153v95h483v-95h-154v-557h727v557h-153v95h483v-95h-153v-1241h153v-94h-483v94h153v584h-727v-584h154v-94h-483z" />
<glyph unicode="I" horiz-adv-x="708" d="M113 0v94h153v1241h-153v95h483v-95h-154v-1241h154v-94h-483z" />
<glyph unicode="J" horiz-adv-x="935" d="M31 172q0 57 32.5 95t92.5 38q51 0 79.5 -32.5t28.5 -86.5q0 -41 -20.5 -66.5t-42.5 -33.5v-6q20 -6 49 -10t63 -4q201 0 201 243v1026h-195v95h525v-95h-154v-1009q0 -176 -99.5 -263.5t-277.5 -87.5q-141 0 -211.5 55.5t-70.5 141.5z" />
<glyph unicode="K" horiz-adv-x="1447" d="M113 0v94h153v1241h-153v95h483v-95h-154v-684h9l190 215l430 469h-164v95h441v-95h-138l-442 -477l494 -764h141v-94h-490v94h146l-414 637l-203 -219v-418h154v-94h-483z" />
<glyph unicode="L" horiz-adv-x="1216" d="M113 0v94h153v1241h-153v95h483v-95h-154v-1235h525v262h147v-362h-1001z" />
<glyph unicode="M" horiz-adv-x="1785" d="M113 0v94h153v1241h-153v95h360l418 -885h6l438 885h338v-95h-153v-1241h153v-94h-483v94h153v1129h-8l-90 -199l-393 -784l-350 733l-115 250h-8v-1129h153v-94h-419z" />
<glyph unicode="N" horiz-adv-x="1593" d="M113 0v94h153v1241h-153v95h346l768 -1147h8v1052h-154v95h420v-95h-153v-1335h-138l-823 1231h-8v-1137h153v-94h-419z" />
<glyph unicode="O" horiz-adv-x="1466" d="M102 715q0 172 45.5 308t128 232.5t199.5 147.5t258 51t258 -51t200 -147.5t128 -232.5t45 -308t-45 -308.5t-128 -232.5t-200 -147.5t-258 -51.5t-258 51.5t-199.5 147.5t-128 232.5t-45.5 308.5zM299 598q0 -113 28.5 -207t84 -162.5t136.5 -106.5t185 -38t185 38 t136.5 106.5t84 162.5t28.5 207v233q0 113 -28.5 207.5t-84 163t-136 106.5t-185.5 38q-104 0 -185 -38t-136.5 -106.5t-84 -163t-28.5 -207.5v-233z" />
<glyph unicode="P" horiz-adv-x="1280" d="M113 0v94h153v1241h-153v95h667q195 0 298.5 -97.5t103.5 -285.5q0 -186 -106.5 -289t-299.5 -103h-334v-561h195v-94h-524zM442 756h324q111 0 169 69.5t58 169.5v95q0 100 -58 169.5t-169 69.5h-324v-573z" />
<glyph unicode="Q" horiz-adv-x="1466" d="M102 715q0 172 45.5 308t128 232.5t199.5 147.5t258 51t258 -51t200 -147.5t128 -232.5t45 -308q0 -158 -39 -287t-109.5 -223t-171 -151.5t-225.5 -71.5l92 -127q23 -33 42.5 -54.5t41 -35t46 -19.5t59.5 -6h61v-94h-108q-59 0 -102.5 8t-77 25.5t-60.5 45t-53 66.5 l-131 193q-121 18 -217.5 76.5t-166 151.5t-106.5 220t-37 283zM299 598q0 -113 28.5 -207t84 -162.5t136.5 -106.5t185 -38t185 38t136.5 106.5t84 162.5t28.5 207v233q0 113 -28.5 207.5t-84 163t-136 106.5t-185.5 38q-104 0 -185 -38t-136.5 -106.5t-84 -163 t-28.5 -207.5v-233z" />
<glyph unicode="R" horiz-adv-x="1376" d="M113 0v94h153v1241h-153v95h667q190 0 296 -95.5t106 -283.5q0 -145 -81 -242.5t-237 -126.5l240 -444q41 -74 92 -109t127 -35h18v-94h-131q-59 0 -99 12.5t-70.5 35t-54 57t-48.5 79.5l-254 473h-242v-563h154v-94h-483zM442 758h322q111 0 170 68.5t59 168.5v95 q0 100 -59.5 169.5t-169.5 69.5h-322v-571z" />
<glyph unicode="S" horiz-adv-x="1204" d="M123 0v420h147v-94q0 -51 15.5 -95.5t51.5 -77t94 -51t142 -18.5q178 0 257 76t79 202q0 109 -60.5 170.5t-189.5 96.5l-112 28q-190 49 -295 147.5t-105 270.5q0 86 33 157t92.5 120t142.5 75.5t183 26.5q117 0 191.5 -36t105.5 -99h12v111h148v-400h-148v94 q0 51 -15 92t-52 70t-96.5 44.5t-145.5 15.5q-143 0 -215 -66t-72 -172q0 -111 64.5 -173.5t204.5 -98.5l104 -27q186 -49 286.5 -147.5t100.5 -258.5q0 -92 -30.5 -170.5t-90 -136t-146.5 -89.5t-200 -32q-129 0 -210 40t-113 108h-11v-123h-147z" />
<glyph unicode="T" horiz-adv-x="1335" d="M72 1085v345h1192v-345h-148v244h-360v-1235h194v-94h-565v94h195v1235h-361v-244h-147z" />
<glyph unicode="U" horiz-adv-x="1505" d="M92 1335v95h483v-95h-153v-817q0 -109 18.5 -188.5t60.5 -132t109.5 -79t167.5 -26.5q201 0 285 105.5t84 320.5v817h-154v95h420v-95h-153v-757q0 -156 -25 -269.5t-83 -187.5t-152.5 -110t-231.5 -36q-139 0 -238.5 31t-163 100.5t-92 178t-28.5 266.5v784h-154z" />
<glyph unicode="V" horiz-adv-x="1359" d="M43 1335v95h479v-95h-184l211 -635l162 -524h8l166 526l200 633h-184v95h416v-95h-109l-440 -1335h-176l-440 1335h-109z" />
<glyph unicode="W" horiz-adv-x="1982" d="M47 1335v95h479v-95h-184l266 -1126h8l314 1221h174l321 -1221h9l268 1126h-184v95h417v-95h-108l-340 -1335h-170l-326 1196h-8l-317 -1196h-170l-340 1335h-109z" />
<glyph unicode="X" horiz-adv-x="1370" d="M37 0v94h123l432 602l-422 639h-123v95h488v-95h-152l326 -506h8l340 506h-135v95h397v-95h-123l-422 -592l432 -649h123v-94h-489v94h151l-332 514h-8l-348 -514h135v-94h-401z" />
<glyph unicode="Y" horiz-adv-x="1298" d="M41 1335v95h494v-95h-185l330 -635h8l338 635h-184v95h415v-95h-108l-412 -749v-492h195v-94h-565v94h194v481l-411 760h-109z" />
<glyph unicode="Z" horiz-adv-x="1304" d="M123 0v100l825 1229h-659v-244h-148v345h1012v-101l-825 -1229h696v262h147v-362h-1048z" />
<glyph unicode="[" horiz-adv-x="581" d="M125 -283v1839h397v-92h-241v-1654h241v-93h-397z" />
<glyph unicode="\" horiz-adv-x="747" d="M84 1532h117l530 -1825h-117z" />
<glyph unicode="]" horiz-adv-x="581" d="M59 -190h242v1654h-242v92h398v-1839h-398v93z" />
<glyph unicode="^" d="M119 694l426 736h139l426 -736l-92 -49l-400 664h-8l-399 -664z" />
<glyph unicode="_" horiz-adv-x="1155" d="M51 -209h1053v-113h-1053v113z" />
<glyph unicode="`" d="M371 1511l157 78l156 -362l-55 -29z" />
<glyph unicode="a" horiz-adv-x="1118" d="M102 262q0 76 25 134.5t81 97t146 59t219 20.5h152v156q0 125 -60.5 191.5t-181.5 66.5q-53 0 -98 -9t-74 -26v-4q23 -12 44.5 -36.5t21.5 -69.5q0 -53 -31 -83t-82 -30q-49 0 -80.5 29.5t-31.5 89.5q0 45 26.5 87t75.5 74.5t122 52t165 19.5q166 0 259 -86t93 -241v-666 h154v-72q-23 -16 -61 -28.5t-85 -12.5q-80 0 -123 45.5t-43 120.5v15h-10q-14 -35 -37.5 -68t-60.5 -57.5t-89 -40t-122 -15.5q-147 0 -230.5 77t-83.5 210zM285 248q0 -78 53 -119t149 -41q98 0 168 50t70 155v199h-133q-88 0 -147.5 -13.5t-94.5 -39t-50 -62.5t-15 -86 v-43z" />
<glyph unicode="b" horiz-adv-x="1224" d="M51 1425v72l320 59v-659h8q35 76 110.5 130t200.5 54q197 0 314.5 -142t117.5 -411q0 -268 -117.5 -410.5t-314.5 -142.5q-127 0 -204.5 53.5t-112.5 129.5h-8l-95 -158h-67v1399zM371 303q0 -49 23.5 -89t61.5 -66.5t87 -41t98 -14.5q141 0 220 95.5t79 254.5v172 q0 160 -79 255.5t-220 95.5q-49 0 -98 -14.5t-87 -41t-61.5 -66.5t-23.5 -89v-451z" />
<glyph unicode="c" horiz-adv-x="1056" d="M92 528q0 127 36 229.5t101.5 174.5t156.5 110.5t202 38.5q166 0 263 -70.5t97 -179.5q0 -66 -33.5 -102.5t-93.5 -36.5q-63 0 -94 37t-31 88q0 45 22.5 78t63.5 51v6q-27 16 -68.5 24.5t-107.5 8.5q-72 0 -132 -26.5t-103 -74.5t-67.5 -112.5t-24.5 -140.5v-152 q0 -84 22.5 -152.5t64.5 -117.5t100 -76t132 -27q125 0 196.5 52.5t114.5 136.5l66 -43q-18 -53 -53 -103.5t-84.5 -88t-116 -61.5t-148.5 -24q-115 0 -203.5 40t-150 113t-94.5 174t-33 226z" />
<glyph unicode="d" horiz-adv-x="1245" d="M102 528q0 268 118 410.5t315 142.5q123 0 199.5 -53t111.5 -129h8v500l-154 26v72l322 59v-1423l152 -27v-69l-320 -62v185h-8q-35 -76 -110.5 -130.5t-200.5 -54.5q-197 0 -315 142.5t-118 410.5zM285 442q0 -160 79 -255t220 -95q49 0 98 14.5t87 41t61.5 66.5 t23.5 89v451q0 49 -23.5 89t-61.5 66.5t-87 41t-98 14.5q-141 0 -220 -95.5t-79 -255.5v-172z" />
<glyph unicode="e" horiz-adv-x="1097" d="M92 528q0 123 36 224.5t98.5 175t148.5 113.5t188 40q104 0 186 -36.5t138.5 -103.5t87.5 -159t31 -200v-47h-727v-54q0 -174 87 -274.5t232 -100.5q127 0 201.5 52.5t118.5 136.5l67 -43q-20 -53 -56 -103.5t-87 -88t-119 -61.5t-152 -24q-113 0 -201.5 40t-150 112 t-94.5 174t-33 227zM279 629h550v20q0 72 -15 133.5t-48 106.5t-83 70.5t-120 25.5t-123 -24.5t-89 -69.5t-54 -105.5t-18 -132.5v-24z" />
<glyph unicode="f" horiz-adv-x="700" d="M92 0v94h152v862h-152v101h152v166q0 74 24.5 135t68.5 105t104.5 68.5t131.5 24.5q111 0 175.5 -43t64.5 -122q0 -53 -29.5 -85t-76.5 -32q-45 0 -73 28.5t-28 69.5q0 72 56 94v4q-14 4 -33 6.5t-41 2.5q-86 0 -131 -61.5t-45 -172.5v-188h229v-101h-229v-862h192v-94 h-512z" />
<glyph unicode="g" horiz-adv-x="1114" d="M88 -180q0 41 18.5 75.5t49 61.5t69.5 46.5t80 29.5v8q-129 45 -129 174q0 82 52.5 129t121.5 66v10q-96 41 -152.5 121t-56.5 192q0 80 30 144.5t84 109.5t128 69.5t162 24.5q96 0 164.5 -25.5t115.5 -62.5q2 119 46 162t104 43q45 0 74.5 -26.5t29.5 -71.5 q0 -43 -27.5 -71t-76.5 -28q-57 0 -88 41h-6v-102q23 -31 47 -80t24 -127q0 -80 -30.5 -145.5t-85 -110.5t-129 -69.5t-162.5 -24.5q-57 0 -109 12q-53 -10 -96 -44t-43 -81q0 -51 39 -71.5t131 -20.5h242q180 0 267 -72.5t87 -207.5q0 -152 -133 -242t-393 -90 q-123 0 -209 18.5t-139.5 51t-77 79.5t-23.5 105zM238 -170q0 -82 70.5 -123t189.5 -41h96q154 0 241 51.5t87 137.5q0 78 -53.5 117.5t-186.5 39.5h-320q-66 -29 -95 -76t-29 -106zM322 692q0 -102 56 -161.5t169 -59.5t169 59.5t56 161.5v80q0 102 -56.5 161.5 t-168.5 59.5q-113 0 -169 -59.5t-56 -161.5v-80z" />
<glyph unicode="h" horiz-adv-x="1277" d="M72 0v94h151v1305l-151 26v72l319 59v-657h8q12 31 37 63.5t63 59.5t88 43t113 16q190 0 272.5 -99t82.5 -298v-590h151v-94h-471v94h152v576q0 150 -59.5 222.5t-188.5 72.5q-45 0 -89 -12.5t-80 -39t-57.5 -65.5t-21.5 -92v-662h152v-94h-471z" />
<glyph unicode="i" horiz-adv-x="645" d="M102 0v94h152v830l-152 26v70l320 61v-987h151v-94h-471zM229 1409v10q0 45 28 77t81 32t82 -32t29 -77v-10q0 -45 -29 -77t-82 -32t-81 32t-28 77z" />
<glyph unicode="j" horiz-adv-x="620" d="M-82 -274q0 45 26.5 75.5t73.5 30.5q45 0 69 -26.5t24 -69.5q0 -29 -13.5 -52.5t-31.5 -29.5v-6q18 -8 53 -8q127 0 127 163v1121l-152 26v70l320 61v-1187q0 -166 -78 -247t-217 -81q-102 0 -151.5 45t-49.5 115zM221 1409v10q0 45 27.5 77t81.5 32q53 0 81.5 -32 t28.5 -77v-10q0 -45 -28.5 -77t-81.5 -32t-81 32t-28 77z" />
<glyph unicode="k" horiz-adv-x="1196" d="M72 0v94h151v1305l-151 26v72l319 59v-1071h10l172 193l258 285h-139v94h438v-94h-149l-297 -310l371 -559h116v-94h-436v94h131l-297 447l-178 -187v-260h152v-94h-471z" />
<glyph unicode="l" horiz-adv-x="614" d="M72 0v94h151v1305l-151 26v72l319 59v-1462h152v-94h-471z" />
<glyph unicode="m" horiz-adv-x="1951" d="M102 0v94h152v830l-152 26v70l316 61v-184h8q12 33 36.5 65.5t62.5 59.5t87.5 43t110.5 16q135 0 215 -51t111 -158h6q16 37 42.5 74t65.5 67.5t91.5 49t121.5 18.5q190 0 271.5 -100t81.5 -299v-588h151v-94h-471v94h152v576q0 295 -244 295q-45 0 -89 -13.5t-78 -39 t-54.5 -65.5t-20.5 -93v-660h152v-94h-471v94h151v576q0 295 -241 295q-47 0 -90.5 -13.5t-78 -39t-55 -65.5t-20.5 -93v-660h151v-94h-471z" />
<glyph unicode="n" horiz-adv-x="1308" d="M102 0v94h152v830l-152 26v70l316 61v-184h8q12 31 37.5 63.5t63.5 59.5t89.5 44t112.5 17q190 0 273 -99t83 -298v-590h152v-94h-471v94h152v576q0 295 -248 295q-45 0 -89 -12.5t-80 -39t-57.5 -65.5t-21.5 -92v-662h151v-94h-471z" />
<glyph unicode="o" horiz-adv-x="1155" d="M92 528q0 125 35 227.5t98.5 175.5t153.5 111.5t199 38.5t198.5 -38.5t153 -111.5t98.5 -175.5t35 -227.5q0 -127 -35 -228t-98.5 -174t-153 -112t-198.5 -39t-199 39t-153.5 112t-98.5 174t-35 228zM283 418q0 -74 17 -136.5t53 -108.5t91.5 -71.5t133.5 -25.5 q76 0 132 25.5t92 71.5t53 108.5t17 136.5v221q0 74 -17 136.5t-53 108.5t-92.5 71.5t-131.5 25.5q-78 0 -133.5 -25.5t-91.5 -71.5t-53 -108.5t-17 -136.5v-221z" />
<glyph unicode="p" horiz-adv-x="1255" d="M82 -315h151v1239l-151 26v70l319 61v-184h9q35 76 110.5 130t200.5 54q197 0 314.5 -142t117.5 -411q0 -268 -117.5 -410.5t-314.5 -142.5q-123 0 -200 53.5t-111 129.5h-9v-473h193v-95h-512v95zM401 303q0 -49 24 -89t61.5 -66.5t87 -41t98.5 -14.5q141 0 220 95.5 t79 254.5v172q0 160 -79 255.5t-220 95.5q-49 0 -98.5 -14.5t-87 -41t-61.5 -66.5t-24 -89v-451z" />
<glyph unicode="q" horiz-adv-x="1224" d="M102 528q0 268 118 410.5t315 142.5q127 0 204.5 -53t112.5 -129h8l94 158h68v-1372h152v-95h-512v95h192v475h-8q-35 -76 -111 -130.5t-200 -54.5q-197 0 -315 142.5t-118 410.5zM285 442q0 -160 79 -255t220 -95q49 0 98 14.5t87 41t61.5 66.5t23.5 89v451 q0 49 -23.5 89t-61.5 66.5t-87 41t-98 14.5q-141 0 -220 -95.5t-79 -255.5v-172z" />
<glyph unicode="r" horiz-adv-x="907" d="M102 0v94h152v830l-152 26v70l316 61v-184h10q14 33 35.5 65.5t53.5 59.5t74 43t97 16q90 0 144.5 -43t54.5 -125q0 -61 -31 -96t-80 -35q-55 0 -88 30t-33 77q0 41 17.5 66.5t40.5 29.5v4q-8 2 -20.5 3t-30.5 1q-43 0 -86.5 -21.5t-77 -55t-55 -76.5t-21.5 -86v-660h192 v-94h-512z" />
<glyph unicode="s" horiz-adv-x="999" d="M123 0v317h123v-43q0 -88 55 -143t182 -55q117 0 181.5 42t64.5 134q0 143 -174 182l-123 27q-152 33 -228.5 110.5t-76.5 212.5q0 139 96 218t258 79q98 0 161 -30.5t83 -79.5h8v86h123v-318h-123v78q0 164 -229 164q-104 0 -162.5 -40t-58.5 -126q0 -72 47 -120 t129 -66l114 -25q158 -33 237 -108.5t79 -210.5q0 -66 -25.5 -122.5t-74 -98t-117 -65.5t-156.5 -24q-96 0 -168 40t-94 89h-8v-104h-123z" />
<glyph unicode="t" horiz-adv-x="722" d="M88 956v101h18q43 0 69 6t41 17.5t22.5 28.5t13.5 40l47 182h92v-274h273v-101h-273v-856h273v-67q-18 -10 -46 -18.5t-62 -14.5t-70.5 -9t-71.5 -3q-109 0 -150 44t-41 150v774h-135z" />
<glyph unicode="u" horiz-adv-x="1267" d="M61 950v70l320 61v-692q0 -297 248 -297q45 0 89 12.5t80 39t57.5 65.5t21.5 92v623l-152 26v70l319 61v-948l152 -27v-69l-315 -62v185h-9q-12 -31 -37.5 -64t-63.5 -59.5t-89.5 -44t-112.5 -17.5q-190 0 -273 99.5t-83 300.5v549z" />
<glyph unicode="v" horiz-adv-x="1093" d="M4 963v94h438v-94h-147l285 -775h8l276 775h-147v94h373v-94h-107l-371 -963h-129l-372 963h-107z" />
<glyph unicode="w" horiz-adv-x="1591" d="M16 963v94h424v-94h-147l211 -799h8l256 893h141l236 -893h8l215 799h-147v94h354v-94h-107l-268 -963h-164l-227 829h-8l-248 -829h-164l-266 963h-107z" />
<glyph unicode="x" horiz-adv-x="1148" d="M63 0v94h117l309 422l-313 447h-106v94h430v-94h-121l229 -336h8l218 336h-127v94h370v-94h-116l-293 -416l313 -453h106v-94h-432v94h121l-227 342h-8l-234 -342h127v-94h-371z" />
<glyph unicode="y" horiz-adv-x="1093" d="M4 963v94h438v-94h-147l285 -775h8l276 775h-147v94h373v-94h-107l-438 -1139q-43 -113 -116 -185.5t-177 -72.5t-151.5 44t-47.5 116q0 53 29 85.5t82 32.5q47 0 72.5 -27.5t25.5 -74.5q0 -35 -17.5 -56.5t-37.5 -27.5v-6q23 -8 53 -8q53 0 104.5 46t92.5 150l43 117 l-389 1006h-107z" />
<glyph unicode="z" horiz-adv-x="1040" d="M102 0v72l605 889h-465v-222h-123v318h803v-72l-605 -889h498v221h123v-317h-836z" />
<glyph unicode="{" horiz-adv-x="669" d="M33 584v106q90 0 148.5 45t58.5 135v531q0 66 39.5 110.5t119.5 44.5h201v-92h-205v-559q0 -49 -18.5 -92t-49 -78t-72.5 -57.5t-87 -30.5v-20q45 -8 87 -31t72.5 -57.5t49 -77.5t18.5 -92v-559h205v-93h-201q-80 0 -119.5 45t-39.5 111v530q0 90 -58.5 135.5 t-148.5 45.5z" />
<glyph unicode="|" horiz-adv-x="610" d="M250 -283v1839h110v-1839h-110z" />
<glyph unicode="}" horiz-adv-x="669" d="M70 -190h204v559q0 49 18.5 92t49.5 77.5t72 57t88 31.5v20q-47 8 -88 30.5t-72 57.5t-49.5 78t-18.5 92v559h-204v92h200q80 0 120 -45t40 -110v-531q0 -90 58.5 -135t148.5 -45v-106q-90 0 -148.5 -45t-58.5 -136v-530q0 -66 -40 -111t-120 -45h-200v93z" />
<glyph unicode="~" d="M131 645q43 51 95.5 81t142.5 30q74 0 133 -20.5t131 -55.5q61 -29 116.5 -49.5t116.5 -20.5q53 0 93 15.5t88 50.5l51 -66q-43 -51 -95.5 -80.5t-142.5 -29.5q-74 0 -133 20.5t-131 54.5q-61 29 -116.5 49.5t-117.5 20.5q-53 0 -93 -16.5t-87 -50.5z" />
<glyph unicode="&#xa1;" horiz-adv-x="573" d="M160 946v12q0 51 33.5 87t93.5 36q59 0 93 -35.5t34 -87.5v-12q0 -51 -34 -87t-93 -36t-93 36t-34 87zM203 59l49 621h70l49 -621v-432h-168v432z" />
<glyph unicode="&#xa2;" horiz-adv-x="1056" d="M92 528q0 117 31 212.5t86 166t133 113.5t174 55v213h107v-209q152 -8 238.5 -76.5t86.5 -173.5q0 -61 -33.5 -97t-93.5 -36q-55 0 -87 36t-32 87q0 41 24 71t65 46v6q-29 16 -71 29.5t-102 13.5v-879q117 4 183.5 56.5t107.5 132.5l66 -43q-18 -49 -48 -95t-73 -84 t-100.5 -63.5t-130.5 -32.5v-210h-107v210q-100 8 -179 52.5t-133 116t-83 169t-29 213.5zM276 479q0 -145 65 -241.5t179 -122.5v858q-111 -29 -177.5 -122t-66.5 -222v-150z" />
<glyph unicode="&#xa3;" horiz-adv-x="1202" d="M117 623v96h162q-27 82 -51.5 164t-24.5 174q0 86 31.5 159.5t89 126t138.5 82t181 29.5q94 0 170 -20.5t130 -56.5t84 -84t30 -105q0 -66 -35 -103.5t-96 -37.5q-59 0 -91 37.5t-32 84.5q0 90 88 129v7q-31 18 -89.5 29.5t-123.5 11.5q-162 0 -234.5 -76t-72.5 -191 q0 -106 26.5 -191t51.5 -169h376v-96h-356q4 -25 7 -49.5t3 -53.5q0 -66 -19.5 -123t-50 -104t-68.5 -83t-75 -56v-9h707v205h102v-350h-938v145q88 41 135 139.5t47 215.5q0 31 -5 61.5t-11 61.5h-186z" />
<glyph unicode="&#xa4;" horiz-adv-x="1249" d="M57 217l211 211q-76 117 -75 287q0 170 75 286l-211 211l90 91l207 -207q109 90 271 90t270 -90l207 207l90 -91l-211 -211q76 -117 76 -286q0 -170 -76 -287l211 -211l-90 -90l-207 207q-108 -90 -270 -90t-271 90l-207 -207zM360 629q0 -61 15.5 -112.5t48.5 -90.5 t83 -60.5t118 -21.5t118 21.5t82.5 60.5t48 90t15.5 113v172q0 61 -15.5 112.5t-48 90t-83 60t-117.5 21.5q-68 0 -118 -21.5t-83 -60t-48.5 -90t-15.5 -112.5v-172z" />
<glyph unicode="&#xa5;" horiz-adv-x="1292" d="M33 1335v95h497v-95h-184l330 -587h8l336 587h-184v95h424v-95h-115l-369 -620h314v-94h-357v-220h357v-94h-357v-213h195v-94h-566v94h195v213h-356v94h356v220h-356v94h305l-359 620h-114z" />
<glyph unicode="&#xa6;" horiz-adv-x="610" d="M250 -283v736h110v-736h-110zM250 821v735h110v-735h-110z" />
<glyph unicode="&#xa7;" horiz-adv-x="1220" d="M156 559q0 104 71.5 182t182.5 113v8q-137 88 -138 266q0 154 99.5 240t287.5 86q147 0 234.5 -50t87.5 -142q0 -61 -34 -96.5t-87 -35.5q-51 0 -81.5 30t-30.5 77q0 43 20 64.5t49 33.5v4q-29 10 -61.5 15.5t-67.5 5.5q-125 0 -192.5 -49t-67.5 -150q0 -84 48 -136 t128 -77l141 -41q78 -23 137.5 -50.5t100.5 -66t61.5 -90t20.5 -120.5q0 -104 -70.5 -182.5t-181.5 -112.5v-9q135 -90 135 -266q0 -154 -98.5 -239.5t-288.5 -85.5q-145 0 -233 50t-88 142q0 61 33.5 96t86.5 35q51 0 82 -29.5t31 -76.5q0 -43 -20.5 -64.5t-49.5 -34.5v-4 q29 -10 62 -15t67 -5q125 0 193 49t68 149q0 84 -48.5 136.5t-128.5 76.5l-141 41q-78 23 -137 50.5t-100 66.5t-61.5 90t-20.5 121zM315 592q0 -78 46.5 -126t132.5 -73l149 -43q23 -6 43.5 -13t40.5 -15q86 14 132 67t46 158q0 78 -46 126t-132 72l-149 43 q-23 6 -43.5 13.5t-38.5 15.5q-86 -14 -133.5 -67.5t-47.5 -157.5z" />
<glyph unicode="&#xa8;" d="M326 1368v6q0 41 27.5 71t74.5 30t74.5 -30t27.5 -71v-6q0 -41 -27.5 -70.5t-74.5 -29.5t-74.5 29.5t-27.5 70.5zM698 1368v6q0 41 28 71t75 30t74.5 -30t27.5 -71v-6q0 -41 -27.5 -70.5t-74.5 -29.5t-75 29.5t-28 70.5z" />
<glyph unicode="&#xa9;" horiz-adv-x="1593" d="M115 715q0 170 52 307t144 233.5t216 147.5t270 51q143 0 268 -51t217 -147.5t144.5 -233.5t52.5 -307t-52.5 -307.5t-144.5 -233.5t-217 -147.5t-268 -51.5q-145 0 -269.5 51.5t-216.5 147.5t-144 233.5t-52 307.5zM223 653q0 -125 42 -231.5t119 -184t181.5 -121.5 t231.5 -44q125 0 230.5 44t182 121.5t118.5 184t42 231.5v123q0 125 -42 231.5t-118.5 184.5t-182 122t-230.5 44q-127 0 -231.5 -44t-181.5 -122t-119 -184.5t-42 -231.5v-123zM461 713q0 92 26.5 165.5t74.5 126t115.5 80t147.5 27.5q121 0 193 -53t72 -135q0 -45 -26 -72 t-71 -27q-41 0 -63.5 27t-22.5 66q0 59 66 88v4q-23 10 -54.5 17t-78.5 7q-106 0 -174 -69.5t-68 -176.5v-110q0 -117 63.5 -187.5t172.5 -70.5q92 0 143 34.5t80 90.5l51 -31q-14 -37 -39 -72.5t-60.5 -63.5t-84 -44.5t-109.5 -16.5q-170 0 -262 109t-92 287z" />
<glyph unicode="&#xaa;" horiz-adv-x="811" d="M82 897q0 102 72.5 156.5t248.5 54.5h101v98q0 82 -40 126t-118 44q-74 0 -113 -20v-6q18 -6 33 -25.5t15 -44.5q0 -35 -24 -55.5t-58 -20.5q-37 0 -60.5 21.5t-23.5 62.5q0 57 69.5 105.5t198.5 48.5q117 0 182.5 -57.5t65.5 -161.5v-439h102v-49q-16 -10 -41.5 -18 t-60.5 -8q-117 0 -117 108v8h-6q-23 -47 -70 -81.5t-137 -34.5q-104 0 -161.5 51t-57.5 137zM213 893q0 -53 36 -80t99 -27q66 0 111 33t45 101v127h-90q-115 0 -158 -32t-43 -97v-25z" />
<glyph unicode="&#xab;" horiz-adv-x="1044" d="M74 537v94l395 366l41 -55l-260 -358l260 -359l-41 -55zM496 537v94l395 366l41 -55l-260 -358l260 -359l-41 -55z" />
<glyph unicode="&#xac;" d="M135 571v107h926v-512h-115v405h-811z" />
<glyph unicode="&#xad;" horiz-adv-x="804" d="M135 553v143h535v-143h-535z" />
<glyph unicode="&#xae;" horiz-adv-x="972" d="M80 1032q0 90 31.5 168t87 134.5t129 88t157.5 31.5q82 0 156 -31.5t129 -88t88 -134.5t33 -168t-33 -168t-88 -134t-129 -88t-156 -32q-84 0 -157.5 32t-129 88t-87 134t-31.5 168zM156 1010q0 -66 24.5 -127.5t67.5 -107.5t103 -73.5t134 -27.5t134.5 27.5t103.5 73.5 t67.5 107.5t24.5 127.5v45q0 66 -24.5 127t-67.5 107t-103.5 74t-134.5 28t-134 -28t-103 -74t-67.5 -107.5t-24.5 -126.5v-45zM301 815v37h41v360h-41v37h209q63 0 98 -29.5t35 -84.5q0 -94 -86 -119l70 -127q20 -37 55 -37h4v-37h-22q-41 0 -68 12.5t-47 46.5l-72 130h-57 v-152h35v-37h-154zM420 1047h84q29 0 44 18t15 47v27q0 29 -15.5 46t-43.5 17h-84v-155z" />
<glyph unicode="&#xaf;" d="M330 1315v117h569v-117h-569z" />
<glyph unicode="&#xb0;" horiz-adv-x="954" d="M135 1104q0 74 25.5 138.5t72 111.5t108.5 73.5t136 26.5t136.5 -26.5t108.5 -73.5t71.5 -111.5t25.5 -138.5t-25.5 -138.5t-71.5 -111.5t-108.5 -73.5t-136.5 -26.5t-136 26.5t-108.5 73.5t-72 111.5t-25.5 138.5zM250 1104q0 -51 16.5 -96t46 -79t71.5 -53.5t93 -19.5 t93 19.5t72 53.5t46.5 79t16.5 96t-16.5 96t-46.5 79t-72 53.5t-93 19.5t-93 -19.5t-71.5 -53.5t-46 -79t-16.5 -96z" />
<glyph unicode="&#xb1;" d="M135 0v106h959v-106h-959zM135 748v106h422v406h115v-406h422v-106h-422v-406h-115v406h-422z" />
<glyph unicode="&#xb2;" horiz-adv-x="708" d="M74 676v106l266 222q49 41 84 92t35 110v23q0 63 -40 103t-108 40q-35 0 -58.5 -5t-41.5 -15v-6q16 -10 27.5 -31t11.5 -41q0 -37 -21.5 -60.5t-58.5 -23.5q-41 0 -63.5 24.5t-22.5 67.5q0 66 69.5 113t180.5 47q129 0 200.5 -56.5t71.5 -156.5q0 -102 -59.5 -173 t-138.5 -122l-224 -143v-9h373v92h82v-198h-565z" />
<glyph unicode="&#xb3;" horiz-adv-x="708" d="M63 825q0 41 23 65.5t64 24.5t60 -23.5t19 -57.5q0 -23 -10 -41.5t-24 -28.5v-6q35 -25 104 -25q82 0 126 38t44 99v31q0 59 -40 94t-118 35h-67v76h59q74 0 113 37t39 84v26q0 59 -38 89t-102 30q-70 0 -100 -18v-6q12 -10 23.5 -27.5t11.5 -42.5q0 -35 -20.5 -58.5 t-59.5 -23.5q-41 0 -63.5 25.5t-22.5 66.5q0 59 69.5 106.5t178.5 47.5q131 0 200.5 -45t69.5 -144q0 -35 -14.5 -64.5t-38 -53t-54 -38t-63.5 -20.5v-8q76 -12 130 -57t54 -123q0 -111 -82 -168t-215 -57q-123 0 -189.5 49t-66.5 112z" />
<glyph unicode="&#xb4;" d="M545 1227l155 362l158 -78l-258 -313z" />
<glyph unicode="&#xb5;" horiz-adv-x="1267" d="M61 950v70l320 61v-692q0 -297 248 -297q45 0 89 12.5t80 39t57.5 65.5t21.5 92v623l-152 26v70l319 61v-948l152 -27v-69l-315 -62v185h-9q-12 -31 -37.5 -64t-63.5 -59.5t-89 -44t-113 -17.5q-84 0 -149.5 30t-100.5 83h-8l84 -383v-115h-182v1334z" />
<glyph unicode="&#xb6;" horiz-adv-x="1312" d="M109 1028q0 100 40.5 176t110.5 126t164 75t201 25h534v-95h-153v-1183q0 -233 -105 -350t-293 -117q-78 0 -143.5 17t-112.5 50t-74.5 76t-27.5 96q0 61 32.5 99t92.5 38q53 0 80.5 -32.5t27.5 -81.5q0 -47 -25.5 -76t-68.5 -41v-6q35 -25 88 -39t131 -14h17v854 q-106 0 -200.5 25.5t-164.5 75.5t-110.5 125t-40.5 177zM727 -209q86 33 131 121t45 240v1183h-176v-1544z" />
<glyph unicode="&#xb7;" horiz-adv-x="663" d="M205 616v13q0 51 33.5 87t93.5 36q59 0 93 -36t34 -87v-13q0 -51 -34 -86.5t-93 -35.5t-93 35.5t-34 86.5z" />
<glyph unicode="&#xb8;" d="M459 -342l41 43q20 -23 49 -36t69 -13q49 0 79 21.5t30 64.5q0 33 -23.5 60.5t-101.5 35.5l-57 6l39 197h78l-33 -164l6 -6q41 10 74 10q66 0 108.5 -33.5t42.5 -99.5q0 -43 -17.5 -73.5t-48 -51t-70.5 -31t-85 -10.5q-74 0 -116 26.5t-64 53.5z" />
<glyph unicode="&#xb9;" horiz-adv-x="737" d="M76 1298l289 132h108v-676h195v-78h-553v78h221v565l-230 -86z" />
<glyph unicode="&#xba;" horiz-adv-x="831" d="M86 1075q0 82 23.5 149.5t66.5 116t104.5 75t135.5 26.5t135 -26.5t104 -75t66.5 -116t23.5 -149.5t-23.5 -149.5t-66.5 -115.5t-104 -74.5t-135 -26.5t-135.5 26.5t-104.5 74.5t-66.5 115.5t-23.5 149.5zM225 999q0 -45 10.5 -85t34 -70.5t59.5 -48t87 -17.5t87 17.5 t58.5 48t33.5 70.5t11 85v152q0 45 -11 85t-33.5 70.5t-58.5 48t-87 17.5t-87 -17.5t-59.5 -48t-34 -70.5t-10.5 -85v-152z" />
<glyph unicode="&#xbb;" horiz-adv-x="1044" d="M113 225l260 359l-260 358l41 55l395 -366v-94l-395 -367zM535 225l260 359l-260 358l41 55l395 -366v-94l-395 -367z" />
<glyph unicode="&#xbc;" horiz-adv-x="1843" d="M76 1298l289 132h108v-676h195v-78h-553v78h221v565l-230 -86zM421 0l990 1430h127l-990 -1430h-127zM1110 147v101l373 506h137v-506h115v-101h-115v-147h-127v147h-383zM1198 248h295v391h-8z" />
<glyph unicode="&#xbd;" horiz-adv-x="1849" d="M76 1298l289 132h108v-676h195v-78h-553v78h221v565l-230 -86zM421 0l990 1430h127l-990 -1430h-127zM1215 0v106l266 222q49 41 84 92t35 110v23q0 63 -40 103t-108 40q-35 0 -58.5 -5t-41.5 -15v-6q16 -10 27.5 -31t11.5 -41q0 -37 -21.5 -60.5t-58.5 -23.5 q-41 0 -63.5 24.5t-22.5 67.5q0 66 69.5 113t180.5 47q129 0 200.5 -56.5t71.5 -156.5q0 -102 -59.5 -173t-138.5 -122l-224 -143v-9h373v93h82v-199h-565z" />
<glyph unicode="&#xbe;" horiz-adv-x="1732" d="M63 825q0 41 23 65.5t64 24.5t60 -23.5t19 -57.5q0 -23 -10 -41.5t-24 -28.5v-6q35 -25 104 -25q82 0 126 38t44 99v31q0 59 -40 94t-118 35h-67v76h59q74 0 113 37t39 84v26q0 59 -38 89t-102 30q-70 0 -100 -18v-6q12 -10 23.5 -27.5t11.5 -42.5q0 -35 -20.5 -58.5 t-59.5 -23.5q-41 0 -63.5 25.5t-22.5 66.5q0 59 69.5 106.5t178.5 47.5q131 0 200.5 -45t69.5 -144q0 -35 -14.5 -64.5t-38 -53t-54 -38t-63.5 -20.5v-8q76 -12 130 -57t54 -123q0 -111 -82 -168t-215 -57q-123 0 -189.5 49t-66.5 112zM311 0l990 1430h127l-990 -1430h-127z M999 147v101l373 506h137v-506h115v-101h-115v-147h-127v147h-383zM1087 248h295v391h-8z" />
<glyph unicode="&#xbf;" horiz-adv-x="997" d="M86 -25q0 92 35 167t96.5 128.5t143 86t176.5 40.5v240h112v-340q-168 -6 -273.5 -81t-105.5 -212v-47q0 -123 72 -188.5t188 -65.5q76 0 125.5 13.5t83.5 33.5v4q-23 8 -48 40t-25 77q0 53 31.5 89t88.5 36t91 -35t34 -100q0 -51 -32.5 -97.5t-88 -82t-129 -57 t-155.5 -21.5q-92 0 -170 26.5t-133.5 75.5t-86 117.5t-30.5 152.5zM465 946v12q0 51 33.5 87t93.5 36q59 0 93 -35.5t34 -87.5v-12q0 -51 -34 -87t-93 -36t-93 36t-34 87z" />
<glyph unicode="&#xc0;" horiz-adv-x="1404" d="M33 0v94h108l465 1336h195l463 -1336h108v-94h-483v94h184l-127 371h-557l-127 -371h184v-94h-413zM418 563h497l-239 717h-12zM459 1872l157 78l156 -363l-55 -28z" />
<glyph unicode="&#xc1;" horiz-adv-x="1404" d="M33 0v94h108l465 1336h195l463 -1336h108v-94h-483v94h184l-127 371h-557l-127 -371h184v-94h-413zM418 563h497l-239 717h-12zM633 1587l155 363l158 -78l-258 -313z" />
<glyph unicode="&#xc2;" horiz-adv-x="1404" d="M33 0v94h108l465 1336h195l463 -1336h108v-94h-483v94h184l-127 371h-557l-127 -371h184v-94h-413zM393 1608l252 305h115l252 -305l-50 -33l-260 199l-260 -199zM418 563h497l-239 717h-12z" />
<glyph unicode="&#xc3;" horiz-adv-x="1404" d="M33 0v94h108l465 1336h195l463 -1336h108v-94h-483v94h184l-127 371h-557l-127 -371h184v-94h-413zM383 1696q51 63 91 101t103 38q39 0 75 -17.5t73 -37.5q37 -18 78 -38t71 -20q31 0 50.5 14.5t58.5 53.5l39 -41q-51 -63 -91.5 -101t-103.5 -38q-39 0 -74.5 17.5 t-72.5 37.5q-37 18 -78 37.5t-72 19.5t-50 -14t-58 -53zM418 563h497l-239 717h-12z" />
<glyph unicode="&#xc4;" horiz-adv-x="1404" d="M33 0v94h108l465 1336h195l463 -1336h108v-94h-483v94h184l-127 371h-557l-127 -371h184v-94h-413zM414 1720v6q0 41 27.5 71t74.5 30t74.5 -30t27.5 -71v-6q0 -41 -27.5 -70.5t-74.5 -29.5t-74.5 29.5t-27.5 70.5zM418 563h497l-239 717h-12zM786 1720v6q0 41 28 71 t75 30t74.5 -30t27.5 -71v-6q0 -41 -27.5 -70.5t-74.5 -29.5t-75 29.5t-28 70.5z" />
<glyph unicode="&#xc5;" horiz-adv-x="1404" d="M33 0v94h108l465 1336h195l463 -1336h108v-94h-483v94h184l-127 371h-557l-127 -371h184v-94h-413zM418 563h497l-239 717h-12zM463 1761q0 49 18.5 91t50 73t75.5 48.5t95 17.5t94.5 -17.5t76 -48.5t51 -73t18.5 -91t-18.5 -91t-51 -72.5t-76 -48t-94.5 -17.5t-95 17.5 t-75.5 48t-50 72.5t-18.5 91zM582 1731q0 -61 31.5 -95t88.5 -34t89 33.5t32 95.5v61q0 61 -31.5 95t-89.5 34q-57 0 -88.5 -34t-31.5 -95v-61z" />
<glyph unicode="&#xc6;" horiz-adv-x="1953" d="M23 0v94h108l637 1241h-156v95h1198v-345h-147v244h-580v-543h406v164h123v-428h-123v164h-406v-586h600v262h148v-362h-1077v94h153v371h-463l-188 -371h158v-94h-391zM487 563h420v772h-20z" />
<glyph unicode="&#xc7;" horiz-adv-x="1329" d="M102 715q0 178 43 315t120 231.5t185.5 143.5t239.5 49q133 0 222 -44t118 -110h8v130h148v-418h-148v106q0 102 -90 165t-235 63q-109 0 -188 -40t-129 -109t-73.5 -160t-23.5 -191v-248q0 -113 29.5 -203t86 -154.5t138.5 -99.5t186 -35q145 0 243.5 76t143.5 193 l80 -39q-18 -57 -56 -117.5t-96.5 -113t-138 -87t-180.5 -41.5l-20 -104l6 -6q41 10 74 10q66 0 108.5 -33.5t42.5 -99.5q0 -43 -17.5 -73.5t-48 -51t-70.5 -31t-85 -10.5q-74 0 -116 26.5t-64 53.5l41 43q20 -23 49 -36t70 -13q49 0 78.5 21.5t29.5 64.5q0 33 -23.5 60.5 t-101.5 35.5l-57 6l26 137q-127 8 -229 62.5t-174 150t-112 228.5t-40 297z" />
<glyph unicode="&#xc8;" horiz-adv-x="1312" d="M113 0v94h153v1241h-153v95h1056v-345h-147v244h-580v-543h406v164h123v-428h-123v164h-406v-586h600v262h148v-362h-1077zM443 1872l157 78l156 -363l-55 -28z" />
<glyph unicode="&#xc9;" horiz-adv-x="1312" d="M113 0v94h153v1241h-153v95h1056v-345h-147v244h-580v-543h406v164h123v-428h-123v164h-406v-586h600v262h148v-362h-1077zM617 1587l155 363l158 -78l-258 -313z" />
<glyph unicode="&#xca;" horiz-adv-x="1312" d="M113 0v94h153v1241h-153v95h1056v-345h-147v244h-580v-543h406v164h123v-428h-123v164h-406v-586h600v262h148v-362h-1077zM377 1608l252 305h115l252 -305l-50 -33l-260 199l-260 -199z" />
<glyph unicode="&#xcb;" horiz-adv-x="1312" d="M113 0v94h153v1241h-153v95h1056v-345h-147v244h-580v-543h406v164h123v-428h-123v164h-406v-586h600v262h148v-362h-1077zM398 1720v6q0 41 27.5 71t74.5 30t74.5 -30t27.5 -71v-6q0 -41 -27.5 -70.5t-74.5 -29.5t-74.5 29.5t-27.5 70.5zM770 1720v6q0 41 28 71t75 30 t74.5 -30t27.5 -71v-6q0 -41 -27.5 -70.5t-74.5 -29.5t-75 29.5t-28 70.5z" />
<glyph unicode="&#xcc;" horiz-adv-x="708" d="M113 0v94h153v1241h-153v95h483v-95h-154v-1241h154v-94h-483zM113 1872l157 78l156 -363l-55 -28z" />
<glyph unicode="&#xcd;" horiz-adv-x="708" d="M113 0v94h153v1241h-153v95h483v-95h-154v-1241h154v-94h-483zM287 1587l155 363l158 -78l-258 -313z" />
<glyph unicode="&#xce;" horiz-adv-x="708" d="M47 1608l252 305h115l252 -305l-50 -33l-260 199l-260 -199zM113 0v94h153v1241h-153v95h483v-95h-154v-1241h154v-94h-483z" />
<glyph unicode="&#xcf;" horiz-adv-x="708" d="M68 1720v6q0 41 27.5 71t74.5 30t74.5 -30t27.5 -71v-6q0 -41 -27.5 -70.5t-74.5 -29.5t-74.5 29.5t-27.5 70.5zM113 0v94h153v1241h-153v95h483v-95h-154v-1241h154v-94h-483zM440 1720v6q0 41 28 71t75 30t74.5 -30t27.5 -71v-6q0 -41 -27.5 -70.5t-74.5 -29.5 t-75 29.5t-28 70.5z" />
<glyph unicode="&#xd0;" horiz-adv-x="1445" d="M82 666v98h184v571h-153v95h598q141 0 257.5 -44.5t199.5 -133.5t129 -223t46 -314t-46 -314.5t-129 -223.5t-199.5 -133t-257.5 -44h-598v94h153v572h-184zM442 100h250q104 0 189.5 36t143.5 100.5t90 154.5t32 201v246q0 111 -32 200.5t-90 154t-143 100.5t-190 36 h-250v-565h283v-98h-283v-566z" />
<glyph unicode="&#xd1;" horiz-adv-x="1593" d="M113 0v94h153v1241h-153v95h346l768 -1147h8v1052h-154v95h420v-95h-153v-1335h-138l-823 1231h-8v-1137h153v-94h-419zM483 1696q51 63 91 101t103 38q39 0 75 -17.5t73 -37.5q37 -18 78 -38t71 -20q31 0 50.5 14.5t58.5 53.5l39 -41q-51 -63 -91.5 -101t-103.5 -38 q-39 0 -74.5 17.5t-72.5 37.5q-37 18 -78 37.5t-72 19.5t-50 -14t-58 -53z" />
<glyph unicode="&#xd2;" horiz-adv-x="1466" d="M102 715q0 172 45.5 308t128 232.5t199.5 147.5t258 51t258 -51t200 -147.5t128 -232.5t45 -308t-45 -308.5t-128 -232.5t-200 -147.5t-258 -51.5t-258 51.5t-199.5 147.5t-128 232.5t-45.5 308.5zM299 598q0 -113 28.5 -207t84 -162.5t136.5 -106.5t185 -38t185 38 t136.5 106.5t84 162.5t28.5 207v233q0 113 -28.5 207.5t-84 163t-136 106.5t-185.5 38q-104 0 -185 -38t-136.5 -106.5t-84 -163t-28.5 -207.5v-233zM490 1872l157 78l156 -363l-55 -28z" />
<glyph unicode="&#xd3;" horiz-adv-x="1466" d="M102 715q0 172 45.5 308t128 232.5t199.5 147.5t258 51t258 -51t200 -147.5t128 -232.5t45 -308t-45 -308.5t-128 -232.5t-200 -147.5t-258 -51.5t-258 51.5t-199.5 147.5t-128 232.5t-45.5 308.5zM299 598q0 -113 28.5 -207t84 -162.5t136.5 -106.5t185 -38t185 38 t136.5 106.5t84 162.5t28.5 207v233q0 113 -28.5 207.5t-84 163t-136 106.5t-185.5 38q-104 0 -185 -38t-136.5 -106.5t-84 -163t-28.5 -207.5v-233zM664 1587l155 363l158 -78l-258 -313z" />
<glyph unicode="&#xd4;" horiz-adv-x="1466" d="M102 715q0 172 45.5 308t128 232.5t199.5 147.5t258 51t258 -51t200 -147.5t128 -232.5t45 -308t-45 -308.5t-128 -232.5t-200 -147.5t-258 -51.5t-258 51.5t-199.5 147.5t-128 232.5t-45.5 308.5zM299 598q0 -113 28.5 -207t84 -162.5t136.5 -106.5t185 -38t185 38 t136.5 106.5t84 162.5t28.5 207v233q0 113 -28.5 207.5t-84 163t-136 106.5t-185.5 38q-104 0 -185 -38t-136.5 -106.5t-84 -163t-28.5 -207.5v-233zM424 1608l252 305h115l252 -305l-50 -33l-260 199l-260 -199z" />
<glyph unicode="&#xd5;" horiz-adv-x="1466" d="M102 715q0 172 45.5 308t128 232.5t199.5 147.5t258 51t258 -51t200 -147.5t128 -232.5t45 -308t-45 -308.5t-128 -232.5t-200 -147.5t-258 -51.5t-258 51.5t-199.5 147.5t-128 232.5t-45.5 308.5zM299 598q0 -113 28.5 -207t84 -162.5t136.5 -106.5t185 -38t185 38 t136.5 106.5t84 162.5t28.5 207v233q0 113 -28.5 207.5t-84 163t-136 106.5t-185.5 38q-104 0 -185 -38t-136.5 -106.5t-84 -163t-28.5 -207.5v-233zM414 1696q51 63 91 101t103 38q39 0 75 -17.5t73 -37.5q37 -18 78 -38t71 -20q31 0 50.5 14.5t58.5 53.5l39 -41 q-51 -63 -91.5 -101t-103.5 -38q-39 0 -74.5 17.5t-72.5 37.5q-37 18 -78 37.5t-72 19.5t-50 -14t-58 -53z" />
<glyph unicode="&#xd6;" horiz-adv-x="1466" d="M102 715q0 172 45.5 308t128 232.5t199.5 147.5t258 51t258 -51t200 -147.5t128 -232.5t45 -308t-45 -308.5t-128 -232.5t-200 -147.5t-258 -51.5t-258 51.5t-199.5 147.5t-128 232.5t-45.5 308.5zM299 598q0 -113 28.5 -207t84 -162.5t136.5 -106.5t185 -38t185 38 t136.5 106.5t84 162.5t28.5 207v233q0 113 -28.5 207.5t-84 163t-136 106.5t-185.5 38q-104 0 -185 -38t-136.5 -106.5t-84 -163t-28.5 -207.5v-233zM445 1720v6q0 41 27.5 71t74.5 30t74.5 -30t27.5 -71v-6q0 -41 -27.5 -70.5t-74.5 -29.5t-74.5 29.5t-27.5 70.5zM817 1720 v6q0 41 28 71t75 30t74.5 -30t27.5 -71v-6q0 -41 -27.5 -70.5t-74.5 -29.5t-75 29.5t-28 70.5z" />
<glyph unicode="&#xd7;" d="M197 283l342 342l-342 342l75 75l342 -342l342 342l76 -75l-342 -342l342 -342l-76 -76l-342 342l-342 -342z" />
<glyph unicode="&#xd8;" horiz-adv-x="1466" d="M102 715q0 172 45.5 308t128 232.5t199.5 147.5t258 51q207 0 357 -106l114 172l80 -56l-119 -180q94 -98 146.5 -240.5t52.5 -328.5q0 -172 -45 -308.5t-128 -232.5t-200 -147.5t-258 -51.5q-207 0 -356 107l-115 -172l-80 55l119 180q-94 98 -146.5 240.5t-52.5 329.5z M299 598q0 -197 84 -330l637 971q-53 51 -125 79t-162 28q-104 0 -185 -38t-136.5 -106.5t-84 -163t-28.5 -207.5v-233zM446 190q53 -51 125 -78.5t162 -27.5q104 0 185 38t136.5 106.5t84 162.5t28.5 207v233q0 197 -84 330z" />
<glyph unicode="&#xd9;" horiz-adv-x="1505" d="M92 1335v95h483v-95h-153v-817q0 -109 18.5 -188.5t60.5 -132t109.5 -79t167.5 -26.5q201 0 285 105.5t84 320.5v817h-154v95h420v-95h-153v-757q0 -156 -25 -269.5t-83 -187.5t-152.5 -110t-231.5 -36q-139 0 -238.5 31t-163 100.5t-92 178t-28.5 266.5v784h-154z M541 1872l157 78l156 -363l-55 -28z" />
<glyph unicode="&#xda;" horiz-adv-x="1505" d="M92 1335v95h483v-95h-153v-817q0 -109 18.5 -188.5t60.5 -132t109.5 -79t167.5 -26.5q201 0 285 105.5t84 320.5v817h-154v95h420v-95h-153v-757q0 -156 -25 -269.5t-83 -187.5t-152.5 -110t-231.5 -36q-139 0 -238.5 31t-163 100.5t-92 178t-28.5 266.5v784h-154z M715 1587l155 363l158 -78l-258 -313z" />
<glyph unicode="&#xdb;" horiz-adv-x="1505" d="M92 1335v95h483v-95h-153v-817q0 -109 18.5 -188.5t60.5 -132t109.5 -79t167.5 -26.5q201 0 285 105.5t84 320.5v817h-154v95h420v-95h-153v-757q0 -156 -25 -269.5t-83 -187.5t-152.5 -110t-231.5 -36q-139 0 -238.5 31t-163 100.5t-92 178t-28.5 266.5v784h-154z M475 1608l252 305h115l252 -305l-50 -33l-260 199l-260 -199z" />
<glyph unicode="&#xdc;" horiz-adv-x="1505" d="M92 1335v95h483v-95h-153v-817q0 -109 18.5 -188.5t60.5 -132t109.5 -79t167.5 -26.5q201 0 285 105.5t84 320.5v817h-154v95h420v-95h-153v-757q0 -156 -25 -269.5t-83 -187.5t-152.5 -110t-231.5 -36q-139 0 -238.5 31t-163 100.5t-92 178t-28.5 266.5v784h-154z M496 1720v6q0 41 27.5 71t74.5 30t74.5 -30t27.5 -71v-6q0 -41 -27.5 -70.5t-74.5 -29.5t-74.5 29.5t-27.5 70.5zM868 1720v6q0 41 28 71t75 30t74.5 -30t27.5 -71v-6q0 -41 -27.5 -70.5t-74.5 -29.5t-75 29.5t-28 70.5z" />
<glyph unicode="&#xdd;" horiz-adv-x="1298" d="M41 1335v95h494v-95h-185l330 -635h8l338 635h-184v95h415v-95h-108l-412 -749v-492h195v-94h-565v94h194v481l-411 760h-109zM619 1587l155 363l158 -78l-258 -313z" />
<glyph unicode="&#xde;" horiz-adv-x="1280" d="M113 0v94h153v1241h-153v95h485v-95h-156v-225h338q195 0 298.5 -99.5t103.5 -291.5q0 -186 -103.5 -284.5t-298.5 -98.5h-338v-242h156v-94h-485zM442 436h324q111 0 169 68.5t58 169.5v98q0 100 -58 169t-169 69h-324v-574z" />
<glyph unicode="&#xdf;" horiz-adv-x="1323" d="M92 0v94h152v862h-152v101h152v61q0 98 31.5 179t90 138.5t140.5 89t184 31.5q100 0 181 -35.5t138.5 -97t87 -144.5t29.5 -179v-131h-77q-154 0 -221.5 -49.5t-67.5 -126.5q0 -72 34.5 -111t125.5 -66l53 -14q147 -37 221 -108.5t74 -194.5q0 -70 -25.5 -129t-74 -102 t-116 -68t-153.5 -25q-166 0 -252 57.5t-86 143.5q0 49 26.5 81t71.5 32q43 0 68 -28t25 -68q0 -33 -13.5 -55.5t-36.5 -35.5v-8q35 -14 74 -20t92 -6q117 0 179.5 48t62.5 140q0 84 -42 127t-138 68l-56 14q-141 41 -205.5 107.5t-64.5 191.5q0 133 96.5 210t262.5 85v65 q0 166 -71 249t-202 83q-145 0 -211.5 -80t-66.5 -235v-1141h-320z" />
<glyph unicode="&#xe0;" horiz-adv-x="1118" d="M102 262q0 76 25 134.5t81 97t146 59t219 20.5h152v156q0 125 -60.5 191.5t-181.5 66.5q-53 0 -98 -9t-74 -26v-4q23 -12 44.5 -36.5t21.5 -69.5q0 -53 -31 -83t-82 -30q-49 0 -80.5 29.5t-31.5 89.5q0 45 26.5 87t75.5 74.5t122 52t165 19.5q166 0 259 -86t93 -241v-666 h154v-72q-23 -16 -61 -28.5t-85 -12.5q-80 0 -123 45.5t-43 120.5v15h-10q-14 -35 -37.5 -68t-60.5 -57.5t-89 -40t-122 -15.5q-147 0 -230.5 77t-83.5 210zM285 248q0 -78 53 -119t149 -41q98 0 168 50t70 155v199h-133q-88 0 -147.5 -13.5t-94.5 -39t-50 -62.5t-15 -86 v-43zM299 1511l157 78l156 -362l-55 -29z" />
<glyph unicode="&#xe1;" horiz-adv-x="1118" d="M102 262q0 76 25 134.5t81 97t146 59t219 20.5h152v156q0 125 -60.5 191.5t-181.5 66.5q-53 0 -98 -9t-74 -26v-4q23 -12 44.5 -36.5t21.5 -69.5q0 -53 -31 -83t-82 -30q-49 0 -80.5 29.5t-31.5 89.5q0 45 26.5 87t75.5 74.5t122 52t165 19.5q166 0 259 -86t93 -241v-666 h154v-72q-23 -16 -61 -28.5t-85 -12.5q-80 0 -123 45.5t-43 120.5v15h-10q-14 -35 -37.5 -68t-60.5 -57.5t-89 -40t-122 -15.5q-147 0 -230.5 77t-83.5 210zM285 248q0 -78 53 -119t149 -41q98 0 168 50t70 155v199h-133q-88 0 -147.5 -13.5t-94.5 -39t-50 -62.5t-15 -86 v-43zM473 1227l155 362l158 -78l-258 -313z" />
<glyph unicode="&#xe2;" horiz-adv-x="1118" d="M102 262q0 76 25 134.5t81 97t146 59t219 20.5h152v156q0 125 -60.5 191.5t-181.5 66.5q-53 0 -98 -9t-74 -26v-4q23 -12 44.5 -36.5t21.5 -69.5q0 -53 -31 -83t-82 -30q-49 0 -80.5 29.5t-31.5 89.5q0 45 26.5 87t75.5 74.5t122 52t165 19.5q166 0 259 -86t93 -241v-666 h154v-72q-23 -16 -61 -28.5t-85 -12.5q-80 0 -123 45.5t-43 120.5v15h-10q-14 -35 -37.5 -68t-60.5 -57.5t-89 -40t-122 -15.5q-147 0 -230.5 77t-83.5 210zM233 1257l252 306h115l252 -306l-50 -32l-260 198l-260 -198zM285 248q0 -78 53 -119t149 -41q98 0 168 50t70 155 v199h-133q-88 0 -147.5 -13.5t-94.5 -39t-50 -62.5t-15 -86v-43z" />
<glyph unicode="&#xe3;" horiz-adv-x="1118" d="M102 262q0 76 25 134.5t81 97t146 59t219 20.5h152v156q0 125 -60.5 191.5t-181.5 66.5q-53 0 -98 -9t-74 -26v-4q23 -12 44.5 -36.5t21.5 -69.5q0 -53 -31 -83t-82 -30q-49 0 -80.5 29.5t-31.5 89.5q0 45 26.5 87t75.5 74.5t122 52t165 19.5q166 0 259 -86t93 -241v-666 h154v-72q-23 -16 -61 -28.5t-85 -12.5q-80 0 -123 45.5t-43 120.5v15h-10q-14 -35 -37.5 -68t-60.5 -57.5t-89 -40t-122 -15.5q-147 0 -230.5 77t-83.5 210zM223 1352q51 63 91 101t103 38q39 0 75 -17.5t73 -37.5q37 -18 78 -38t71 -20q31 0 50.5 14.5t58.5 53.5l39 -41 q-51 -63 -91.5 -101t-103.5 -38q-39 0 -74.5 17t-72.5 38q-37 18 -78 37.5t-72 19.5t-50 -14t-58 -53zM285 248q0 -78 53 -119t149 -41q98 0 168 50t70 155v199h-133q-88 0 -147.5 -13.5t-94.5 -39t-50 -62.5t-15 -86v-43z" />
<glyph unicode="&#xe4;" horiz-adv-x="1118" d="M102 262q0 76 25 134.5t81 97t146 59t219 20.5h152v156q0 125 -60.5 191.5t-181.5 66.5q-53 0 -98 -9t-74 -26v-4q23 -12 44.5 -36.5t21.5 -69.5q0 -53 -31 -83t-82 -30q-49 0 -80.5 29.5t-31.5 89.5q0 45 26.5 87t75.5 74.5t122 52t165 19.5q166 0 259 -86t93 -241v-666 h154v-72q-23 -16 -61 -28.5t-85 -12.5q-80 0 -123 45.5t-43 120.5v15h-10q-14 -35 -37.5 -68t-60.5 -57.5t-89 -40t-122 -15.5q-147 0 -230.5 77t-83.5 210zM254 1368v6q0 41 27.5 71t74.5 30t74.5 -30t27.5 -71v-6q0 -41 -27.5 -70.5t-74.5 -29.5t-74.5 29.5t-27.5 70.5z M285 248q0 -78 53 -119t149 -41q98 0 168 50t70 155v199h-133q-88 0 -147.5 -13.5t-94.5 -39t-50 -62.5t-15 -86v-43zM626 1368v6q0 41 28 71t75 30t74.5 -30t27.5 -71v-6q0 -41 -27.5 -70.5t-74.5 -29.5t-75 29.5t-28 70.5z" />
<glyph unicode="&#xe5;" horiz-adv-x="1118" d="M102 262q0 76 25 134.5t81 97t146 59t219 20.5h152v156q0 125 -60.5 191.5t-181.5 66.5q-53 0 -98 -9t-74 -26v-4q23 -12 44.5 -36.5t21.5 -69.5q0 -53 -31 -83t-82 -30q-49 0 -80.5 29.5t-31.5 89.5q0 45 26.5 87t75.5 74.5t122 52t165 19.5q166 0 259 -86t93 -241v-666 h154v-72q-23 -16 -61 -28.5t-85 -12.5q-80 0 -123 45.5t-43 120.5v15h-10q-14 -35 -37.5 -68t-60.5 -57.5t-89 -40t-122 -15.5q-147 0 -230.5 77t-83.5 210zM285 248q0 -78 53 -119t149 -41q98 0 168 50t70 155v199h-133q-88 0 -147.5 -13.5t-94.5 -39t-50 -62.5t-15 -86 v-43zM303 1415q0 49 18.5 91t50 73t75.5 48.5t95 17.5t94.5 -17.5t76 -48.5t51 -73t18.5 -91t-18.5 -91t-51 -72.5t-76 -48t-94.5 -17.5t-95 17.5t-75.5 48t-50 72.5t-18.5 91zM422 1384q0 -61 31.5 -95t88.5 -34t89 34t32 95v62q0 61 -31.5 95t-89.5 34q-57 0 -88.5 -34 t-31.5 -95v-62z" />
<glyph unicode="&#xe6;" horiz-adv-x="1685" d="M102 272q0 82 25 143.5t81 101.5t146 59.5t219 19.5h152v133q0 125 -60.5 191.5t-181.5 66.5q-53 0 -98 -9t-74 -26v-4q23 -12 44.5 -36.5t21.5 -69.5q0 -53 -31 -83t-82 -30q-49 0 -80.5 29.5t-31.5 89.5q0 45 26.5 87t75.5 74.5t122 52t165 19.5q66 0 117 -18.5 t87.5 -49t58 -71.5t27.5 -86h13q29 98 116 161.5t211 63.5q104 0 183.5 -40t132.5 -108.5t79.5 -162.5t26.5 -203v-57h-698v-29q0 -174 87 -274.5t232 -100.5q63 0 108.5 11.5t78.5 33t56.5 53.5t45.5 72l68 -43q-20 -53 -51 -100t-77 -82t-108.5 -55.5t-146.5 -20.5 q-76 0 -138.5 20.5t-109.5 54.5t-80 78t-47 91h-12q-39 -129 -138.5 -186.5t-246.5 -57.5t-230.5 82t-83.5 215zM285 248q0 -78 53 -119t149 -41q98 0 168 50t70 155v221h-133q-88 0 -147.5 -13.5t-94.5 -40t-50 -63.5t-15 -86v-63zM895 600h524v35q0 72 -13 135.5 t-42 111.5t-77 75.5t-116 27.5q-70 0 -121 -25.5t-85.5 -70.5t-52 -106.5t-17.5 -133.5v-49z" />
<glyph unicode="&#xe7;" horiz-adv-x="1056" d="M92 528q0 127 36 229.5t101.5 174.5t156.5 110.5t202 38.5q166 0 263 -70.5t97 -179.5q0 -66 -33.5 -102.5t-93.5 -36.5q-63 0 -94 37t-31 88q0 45 22.5 78t63.5 51v6q-27 16 -68.5 24.5t-107.5 8.5q-72 0 -132 -26.5t-103 -74.5t-67.5 -112.5t-24.5 -140.5v-152 q0 -84 22.5 -152.5t64.5 -117.5t100 -76t132 -27q125 0 196.5 52.5t114.5 136.5l66 -43q-18 -49 -50 -97.5t-78 -86t-105.5 -62t-135.5 -29.5l-20 -104l6 -6q41 10 74 10q66 0 108.5 -33.5t42.5 -99.5q0 -43 -17.5 -73.5t-48 -51t-70.5 -31t-85 -10.5q-74 0 -116 26.5 t-64 53.5l41 43q20 -23 49 -36t69 -13q49 0 79 21.5t30 64.5q0 33 -23.5 60.5t-101.5 35.5l-57 6l26 137q-104 8 -185 50.5t-136 115t-85 170t-30 215.5z" />
<glyph unicode="&#xe8;" horiz-adv-x="1097" d="M92 528q0 123 36 224.5t98.5 175t148.5 113.5t188 40q104 0 186 -36.5t138.5 -103.5t87.5 -159t31 -200v-47h-727v-54q0 -174 87 -274.5t232 -100.5q127 0 201.5 52.5t118.5 136.5l67 -43q-20 -53 -56 -103.5t-87 -88t-119 -61.5t-152 -24q-113 0 -201.5 40t-150 112 t-94.5 174t-33 227zM279 629h550v20q0 72 -15 133.5t-48 106.5t-83 70.5t-120 25.5t-123 -24.5t-89 -69.5t-54 -105.5t-18 -132.5v-24zM318 1511l157 78l156 -362l-55 -29z" />
<glyph unicode="&#xe9;" horiz-adv-x="1097" d="M92 528q0 123 36 224.5t98.5 175t148.5 113.5t188 40q104 0 186 -36.5t138.5 -103.5t87.5 -159t31 -200v-47h-727v-54q0 -174 87 -274.5t232 -100.5q127 0 201.5 52.5t118.5 136.5l67 -43q-20 -53 -56 -103.5t-87 -88t-119 -61.5t-152 -24q-113 0 -201.5 40t-150 112 t-94.5 174t-33 227zM279 629h550v20q0 72 -15 133.5t-48 106.5t-83 70.5t-120 25.5t-123 -24.5t-89 -69.5t-54 -105.5t-18 -132.5v-24zM492 1227l155 362l158 -78l-258 -313z" />
<glyph unicode="&#xea;" horiz-adv-x="1097" d="M92 528q0 123 36 224.5t98.5 175t148.5 113.5t188 40q104 0 186 -36.5t138.5 -103.5t87.5 -159t31 -200v-47h-727v-54q0 -174 87 -274.5t232 -100.5q127 0 201.5 52.5t118.5 136.5l67 -43q-20 -53 -56 -103.5t-87 -88t-119 -61.5t-152 -24q-113 0 -201.5 40t-150 112 t-94.5 174t-33 227zM252 1257l252 306h115l252 -306l-50 -32l-260 198l-260 -198zM279 629h550v20q0 72 -15 133.5t-48 106.5t-83 70.5t-120 25.5t-123 -24.5t-89 -69.5t-54 -105.5t-18 -132.5v-24z" />
<glyph unicode="&#xeb;" horiz-adv-x="1097" d="M92 528q0 123 36 224.5t98.5 175t148.5 113.5t188 40q104 0 186 -36.5t138.5 -103.5t87.5 -159t31 -200v-47h-727v-54q0 -174 87 -274.5t232 -100.5q127 0 201.5 52.5t118.5 136.5l67 -43q-20 -53 -56 -103.5t-87 -88t-119 -61.5t-152 -24q-113 0 -201.5 40t-150 112 t-94.5 174t-33 227zM273 1368v6q0 41 27.5 71t74.5 30t74.5 -30t27.5 -71v-6q0 -41 -27.5 -70.5t-74.5 -29.5t-74.5 29.5t-27.5 70.5zM279 629h550v20q0 72 -15 133.5t-48 106.5t-83 70.5t-120 25.5t-123 -24.5t-89 -69.5t-54 -105.5t-18 -132.5v-24zM645 1368v6q0 41 28 71 t75 30t74.5 -30t27.5 -71v-6q0 -41 -27.5 -70.5t-74.5 -29.5t-75 29.5t-28 70.5z" />
<glyph unicode="&#xec;" horiz-adv-x="645" d="M97 1511l157 78l156 -362l-55 -29zM102 0v94h152v830l-152 26v70l320 61v-987h151v-94h-471z" />
<glyph unicode="&#xed;" horiz-adv-x="645" d="M102 0v94h152v830l-152 26v70l320 61v-987h151v-94h-471zM271 1227l155 362l158 -78l-258 -313z" />
<glyph unicode="&#xee;" horiz-adv-x="645" d="M31 1257l252 306h115l252 -306l-50 -32l-260 198l-260 -198zM102 0v94h152v830l-152 26v70l320 61v-987h151v-94h-471z" />
<glyph unicode="&#xef;" horiz-adv-x="645" d="M52 1368v6q0 41 27.5 71t74.5 30t74.5 -30t27.5 -71v-6q0 -41 -27.5 -70.5t-74.5 -29.5t-74.5 29.5t-27.5 70.5zM102 0v94h152v830l-152 26v70l320 61v-987h151v-94h-471zM424 1368v6q0 41 28 71t75 30t74.5 -30t27.5 -71v-6q0 -41 -27.5 -70.5t-74.5 -29.5t-75 29.5 t-28 70.5z" />
<glyph unicode="&#xf0;" horiz-adv-x="1159" d="M90 506q0 121 32 218t91 167t143 106.5t187 36.5q166 0 264 -129l8 4q-35 104 -91 204.5t-128 178.5l-178 -131l-60 80l168 123q-47 41 -107.5 89t-119.5 79h172q29 -16 71 -45t76 -55l170 124l64 -79l-152 -111q66 -61 128.5 -138t111.5 -177.5t79 -224.5t30 -277 q0 -291 -129.5 -432.5t-350.5 -141.5q-113 0 -201.5 37t-150 106.5t-94.5 168t-33 219.5zM272 420q0 -174 81 -259t216 -85t216 85t81 259v170q0 174 -80.5 259t-216.5 85q-135 0 -216 -85t-81 -259v-170z" />
<glyph unicode="&#xf1;" horiz-adv-x="1308" d="M102 0v94h152v830l-152 26v70l316 61v-184h8q12 31 37.5 63.5t63.5 59.5t89.5 44t112.5 17q190 0 273 -99t83 -298v-590h152v-94h-471v94h152v576q0 295 -248 295q-45 0 -89 -12.5t-80 -39t-57.5 -65.5t-21.5 -92v-662h151v-94h-471zM369 1352q51 63 91 101t103 38 q39 0 75 -17.5t73 -37.5q37 -18 78 -38t71 -20q31 0 50.5 14.5t58.5 53.5l39 -41q-51 -63 -91.5 -101t-103.5 -38q-39 0 -74.5 17t-72.5 38q-37 18 -78 37.5t-72 19.5t-50 -14t-58 -53z" />
<glyph unicode="&#xf2;" horiz-adv-x="1155" d="M92 528q0 125 35 227.5t98.5 175.5t153.5 111.5t199 38.5t198.5 -38.5t153 -111.5t98.5 -175.5t35 -227.5q0 -127 -35 -228t-98.5 -174t-153 -112t-198.5 -39t-199 39t-153.5 112t-98.5 174t-35 228zM283 418q0 -74 17 -136.5t53 -108.5t91.5 -71.5t133.5 -25.5 q76 0 132 25.5t92 71.5t53 108.5t17 136.5v221q0 74 -17 136.5t-53 108.5t-92.5 71.5t-131.5 25.5q-78 0 -133.5 -25.5t-91.5 -71.5t-53 -108.5t-17 -136.5v-221zM336 1511l157 78l156 -362l-55 -29z" />
<glyph unicode="&#xf3;" horiz-adv-x="1155" d="M92 528q0 125 35 227.5t98.5 175.5t153.5 111.5t199 38.5t198.5 -38.5t153 -111.5t98.5 -175.5t35 -227.5q0 -127 -35 -228t-98.5 -174t-153 -112t-198.5 -39t-199 39t-153.5 112t-98.5 174t-35 228zM283 418q0 -74 17 -136.5t53 -108.5t91.5 -71.5t133.5 -25.5 q76 0 132 25.5t92 71.5t53 108.5t17 136.5v221q0 74 -17 136.5t-53 108.5t-92.5 71.5t-131.5 25.5q-78 0 -133.5 -25.5t-91.5 -71.5t-53 -108.5t-17 -136.5v-221zM510 1227l155 362l158 -78l-258 -313z" />
<glyph unicode="&#xf4;" horiz-adv-x="1155" d="M92 528q0 125 35 227.5t98.5 175.5t153.5 111.5t199 38.5t198.5 -38.5t153 -111.5t98.5 -175.5t35 -227.5q0 -127 -35 -228t-98.5 -174t-153 -112t-198.5 -39t-199 39t-153.5 112t-98.5 174t-35 228zM270 1257l252 306h115l252 -306l-50 -32l-260 198l-260 -198zM283 418 q0 -74 17 -136.5t53 -108.5t91.5 -71.5t133.5 -25.5q76 0 132 25.5t92 71.5t53 108.5t17 136.5v221q0 74 -17 136.5t-53 108.5t-92.5 71.5t-131.5 25.5q-78 0 -133.5 -25.5t-91.5 -71.5t-53 -108.5t-17 -136.5v-221z" />
<glyph unicode="&#xf5;" horiz-adv-x="1155" d="M92 528q0 125 35 227.5t98.5 175.5t153.5 111.5t199 38.5t198.5 -38.5t153 -111.5t98.5 -175.5t35 -227.5q0 -127 -35 -228t-98.5 -174t-153 -112t-198.5 -39t-199 39t-153.5 112t-98.5 174t-35 228zM260 1352q51 63 91 101t103 38q39 0 75 -17.5t73 -37.5q37 -18 78 -38 t71 -20q31 0 50.5 14.5t58.5 53.5l39 -41q-51 -63 -91.5 -101t-103.5 -38q-39 0 -74.5 17t-72.5 38q-37 18 -78 37.5t-72 19.5t-50 -14t-58 -53zM283 418q0 -74 17 -136.5t53 -108.5t91.5 -71.5t133.5 -25.5q76 0 132 25.5t92 71.5t53 108.5t17 136.5v221q0 74 -17 136.5 t-53 108.5t-92.5 71.5t-131.5 25.5q-78 0 -133.5 -25.5t-91.5 -71.5t-53 -108.5t-17 -136.5v-221z" />
<glyph unicode="&#xf6;" horiz-adv-x="1155" d="M92 528q0 125 35 227.5t98.5 175.5t153.5 111.5t199 38.5t198.5 -38.5t153 -111.5t98.5 -175.5t35 -227.5q0 -127 -35 -228t-98.5 -174t-153 -112t-198.5 -39t-199 39t-153.5 112t-98.5 174t-35 228zM283 418q0 -74 17 -136.5t53 -108.5t91.5 -71.5t133.5 -25.5 q76 0 132 25.5t92 71.5t53 108.5t17 136.5v221q0 74 -17 136.5t-53 108.5t-92.5 71.5t-131.5 25.5q-78 0 -133.5 -25.5t-91.5 -71.5t-53 -108.5t-17 -136.5v-221zM291 1368v6q0 41 27.5 71t74.5 30t74.5 -30t27.5 -71v-6q0 -41 -27.5 -70.5t-74.5 -29.5t-74.5 29.5 t-27.5 70.5zM663 1368v6q0 41 28 71t75 30t74.5 -30t27.5 -71v-6q0 -41 -27.5 -70.5t-74.5 -29.5t-75 29.5t-28 70.5z" />
<glyph unicode="&#xf7;" d="M135 571v107h959v-107h-959zM494 242v12q0 47 31.5 82t88.5 35t89 -35t32 -82v-12q0 -47 -32 -82t-89 -35t-88.5 35t-31.5 82zM494 995v13q0 47 31.5 81.5t88.5 34.5t89 -34.5t32 -81.5v-13q0 -47 -32 -81.5t-89 -34.5t-88.5 34.5t-31.5 81.5z" />
<glyph unicode="&#xf8;" horiz-adv-x="1155" d="M92 528q0 125 35 227.5t98.5 175.5t153.5 111.5t199 38.5q170 0 292 -94l115 148l72 -56l-119 -157q59 -72 92 -171.5t33 -222.5q0 -127 -35 -228t-98.5 -174t-153.5 -112t-198 -39q-170 0 -293 95l-115 -148l-72 55l119 158q-59 72 -92 171.5t-33 221.5zM283 418 q0 -47 6 -89t22 -79l488 639q-37 43 -91.5 67.5t-129.5 24.5q-78 0 -133.5 -25.5t-91.5 -71.5t-53 -108.5t-17 -136.5v-221zM356 168q37 -43 91.5 -67.5t130.5 -24.5t132 25.5t92 71.5t53 108.5t17 136.5v221q0 47 -6 89t-22 79z" />
<glyph unicode="&#xf9;" horiz-adv-x="1267" d="M61 950v70l320 61v-692q0 -297 248 -297q45 0 89 12.5t80 39t57.5 65.5t21.5 92v623l-152 26v70l319 61v-948l152 -27v-69l-315 -62v185h-9q-12 -31 -37.5 -64t-63.5 -59.5t-89.5 -44t-112.5 -17.5q-190 0 -273 99.5t-83 300.5v549zM371 1511l157 78l156 -362l-55 -29z " />
<glyph unicode="&#xfa;" horiz-adv-x="1267" d="M61 950v70l320 61v-692q0 -297 248 -297q45 0 89 12.5t80 39t57.5 65.5t21.5 92v623l-152 26v70l319 61v-948l152 -27v-69l-315 -62v185h-9q-12 -31 -37.5 -64t-63.5 -59.5t-89.5 -44t-112.5 -17.5q-190 0 -273 99.5t-83 300.5v549zM545 1227l155 362l158 -78l-258 -313z " />
<glyph unicode="&#xfb;" horiz-adv-x="1267" d="M61 950v70l320 61v-692q0 -297 248 -297q45 0 89 12.5t80 39t57.5 65.5t21.5 92v623l-152 26v70l319 61v-948l152 -27v-69l-315 -62v185h-9q-12 -31 -37.5 -64t-63.5 -59.5t-89.5 -44t-112.5 -17.5q-190 0 -273 99.5t-83 300.5v549zM305 1257l252 306h115l252 -306 l-50 -32l-260 198l-260 -198z" />
<glyph unicode="&#xfc;" horiz-adv-x="1267" d="M61 950v70l320 61v-692q0 -297 248 -297q45 0 89 12.5t80 39t57.5 65.5t21.5 92v623l-152 26v70l319 61v-948l152 -27v-69l-315 -62v185h-9q-12 -31 -37.5 -64t-63.5 -59.5t-89.5 -44t-112.5 -17.5q-190 0 -273 99.5t-83 300.5v549zM326 1368v6q0 41 27.5 71t74.5 30 t74.5 -30t27.5 -71v-6q0 -41 -27.5 -70.5t-74.5 -29.5t-74.5 29.5t-27.5 70.5zM698 1368v6q0 41 28 71t75 30t74.5 -30t27.5 -71v-6q0 -41 -27.5 -70.5t-74.5 -29.5t-75 29.5t-28 70.5z" />
<glyph unicode="&#xfd;" horiz-adv-x="1093" d="M4 963v94h438v-94h-147l285 -775h8l276 775h-147v94h373v-94h-107l-438 -1139q-43 -113 -116 -185.5t-177 -72.5t-151.5 44t-47.5 116q0 53 29 85.5t82 32.5q47 0 72.5 -27.5t25.5 -74.5q0 -35 -17.5 -56.5t-37.5 -27.5v-6q23 -8 53 -8q53 0 104.5 46t92.5 150l43 117 l-389 1006h-107zM510 1227l155 362l158 -78l-258 -313z" />
<glyph unicode="&#xfe;" horiz-adv-x="1224" d="M51 -315h152v1714l-152 26v72l320 59v-659h8q35 76 110.5 130t200.5 54q197 0 314.5 -142t117.5 -411q0 -268 -117.5 -410.5t-314.5 -142.5q-123 0 -199.5 53.5t-111.5 129.5h-8v-473h192v-95h-512v95zM371 303q0 -49 23.5 -89t61.5 -66.5t87 -41t98 -14.5 q141 0 220 95.5t79 254.5v172q0 160 -79 255.5t-220 95.5q-49 0 -98 -14.5t-87 -41t-61.5 -66.5t-23.5 -89v-451z" />
<glyph unicode="&#xff;" horiz-adv-x="1093" d="M4 963v94h438v-94h-147l285 -775h8l276 775h-147v94h373v-94h-107l-438 -1139q-43 -113 -116 -185.5t-177 -72.5t-151.5 44t-47.5 116q0 53 29 85.5t82 32.5q47 0 72.5 -27.5t25.5 -74.5q0 -35 -17.5 -56.5t-37.5 -27.5v-6q23 -8 53 -8q53 0 104.5 46t92.5 150l43 117 l-389 1006h-107zM291 1368v6q0 41 27.5 71t74.5 30t74.5 -30t27.5 -71v-6q0 -41 -27.5 -70.5t-74.5 -29.5t-74.5 29.5t-27.5 70.5zM663 1368v6q0 41 28 71t75 30t74.5 -30t27.5 -71v-6q0 -41 -27.5 -70.5t-74.5 -29.5t-75 29.5t-28 70.5z" />
<glyph unicode="&#x152;" horiz-adv-x="2070" d="M102 715q0 172 44 308t128 232.5t205 147.5t275 51q106 0 192 -24h981v-345h-147v244h-580v-543h406v164h123v-428h-123v164h-406v-586h600v262h148v-362h-1002q-86 -25 -192 -25q-154 0 -275 51.5t-205 147.5t-128 232.5t-44 308.5zM299 598q0 -113 27.5 -207t84 -162.5 t141.5 -106.5t202 -38q86 0 154.5 18.5t115.5 53.5v1118q-47 35 -115.5 53.5t-154.5 18.5q-115 0 -200 -38t-142.5 -106.5t-85 -163t-27.5 -207.5v-233z" />
<glyph unicode="&#x153;" horiz-adv-x="1873" d="M92 528q0 125 35 227.5t98.5 175.5t152.5 111.5t197 38.5q129 0 234.5 -59t146.5 -180h13q45 121 147.5 180t222.5 59q104 0 186.5 -36.5t138.5 -103.5t87 -158t31 -199v-49h-727v-54q0 -176 87 -275.5t232 -99.5q127 0 202 52.5t118 136.5l67 -43q-20 -53 -56 -103.5 t-87 -88t-118.5 -61.5t-151.5 -24q-131 0 -227.5 56.5t-153.5 177.5h-13q-57 -121 -153.5 -177.5t-225.5 -56.5q-109 0 -197.5 39t-152 112t-98.5 174t-35 228zM283 416q0 -72 17 -134.5t53 -108.5t91.5 -71.5t133.5 -25.5q76 0 132 25.5t92 71.5t53 108.5t17 134.5v225 q0 74 -17 135.5t-53 107.5t-92.5 71.5t-131.5 25.5q-78 0 -133.5 -25.5t-91.5 -71.5t-53 -107.5t-17 -135.5v-225zM1055 629h551v22q0 70 -15.5 131.5t-48.5 106.5t-83 70.5t-120 25.5t-123 -24.5t-88.5 -69.5t-54 -105.5t-18.5 -132.5v-24z" />
<glyph unicode="&#x178;" horiz-adv-x="1298" d="M41 1335v95h494v-95h-185l330 -635h8l338 635h-184v95h415v-95h-108l-412 -749v-492h195v-94h-565v94h194v481l-411 760h-109zM400 1720v6q0 41 27.5 71t74.5 30t74.5 -30t27.5 -71v-6q0 -41 -27.5 -70.5t-74.5 -29.5t-74.5 29.5t-27.5 70.5zM772 1720v6q0 41 28 71 t75 30t74.5 -30t27.5 -71v-6q0 -41 -27.5 -70.5t-74.5 -29.5t-75 29.5t-28 70.5z" />
<glyph unicode="&#x2c6;" d="M305 1257l252 306h115l252 -306l-50 -32l-260 198l-260 -198z" />
<glyph unicode="&#x2dc;" d="M295 1352q51 63 91 101t103 38q39 0 75 -17.5t73 -37.5q37 -18 78 -38t71 -20q31 0 50.5 14.5t58.5 53.5l39 -41q-51 -63 -91.5 -101t-103.5 -38q-39 0 -74.5 17t-72.5 38q-37 18 -78 37.5t-72 19.5t-50 -14t-58 -53z" />
<glyph unicode="&#x2000;" horiz-adv-x="995" />
<glyph unicode="&#x2001;" horiz-adv-x="1991" />
<glyph unicode="&#x2002;" horiz-adv-x="995" />
<glyph unicode="&#x2003;" horiz-adv-x="1991" />
<glyph unicode="&#x2004;" horiz-adv-x="663" />
<glyph unicode="&#x2005;" horiz-adv-x="497" />
<glyph unicode="&#x2006;" horiz-adv-x="331" />
<glyph unicode="&#x2007;" horiz-adv-x="331" />
<glyph unicode="&#x2008;" horiz-adv-x="248" />
<glyph unicode="&#x2009;" horiz-adv-x="398" />
<glyph unicode="&#x200a;" horiz-adv-x="110" />
<glyph unicode="&#x2010;" horiz-adv-x="804" d="M135 553v143h535v-143h-535z" />
<glyph unicode="&#x2011;" horiz-adv-x="804" d="M135 553v143h535v-143h-535z" />
<glyph unicode="&#x2012;" horiz-adv-x="804" d="M135 553v143h535v-143h-535z" />
<glyph unicode="&#x2013;" horiz-adv-x="1202" d="M66 565v113h1071v-113h-1071z" />
<glyph unicode="&#x2014;" horiz-adv-x="1603" d="M66 565v113h1472v-113h-1472z" />
<glyph unicode="&#x2018;" horiz-adv-x="548" d="M147 1153v18q0 45 16.5 94.5t44.5 98.5t65.5 92t80.5 76h103q-70 -61 -117 -128t-61 -126h4q57 0 87.5 -37t30.5 -84v-12q0 -53 -35 -89t-92 -36q-59 0 -93 39t-34 94z" />
<glyph unicode="&#x2019;" horiz-adv-x="548" d="M92 1020q70 61 117 127.5t61 126.5h-4q-57 0 -88 37t-31 84v12q0 53 35 89t92 36q59 0 93 -39t34 -94v-19q0 -45 -16 -94t-44 -98t-65.5 -92t-80.5 -76h-103z" />
<glyph unicode="&#x201a;" horiz-adv-x="548" d="M92 -252q70 61 117 128t61 126h-4q-57 0 -88 37t-31 84v12q0 53 35 89t92 36q59 0 93 -39t34 -94v-18q0 -45 -16 -94.5t-44 -98.5t-65.5 -92t-80.5 -76h-103z" />
<glyph unicode="&#x201c;" horiz-adv-x="946" d="M147 1153v18q0 45 16.5 94.5t44.5 98.5t65.5 92t80.5 76h103q-70 -61 -117 -128t-61 -126h4q57 0 87.5 -37t30.5 -84v-12q0 -53 -35 -89t-92 -36q-59 0 -93 39t-34 94zM544 1153v18q0 45 16.5 94.5t44.5 98.5t65.5 92t80.5 76h103q-70 -61 -117 -128t-61 -126h4 q57 0 87.5 -37t30.5 -84v-12q0 -53 -35 -89t-92 -36q-59 0 -93 39t-34 94z" />
<glyph unicode="&#x201d;" horiz-adv-x="946" d="M92 1020q70 61 117 127.5t61 126.5h-4q-57 0 -88 37t-31 84v12q0 53 35 89t92 36q59 0 93 -39t34 -94v-19q0 -45 -16 -94t-44 -98t-65.5 -92t-80.5 -76h-103zM489 1020q70 61 117 127.5t61 126.5h-4q-57 0 -88 37t-31 84v12q0 53 35 89t92 36q59 0 93 -39t34 -94v-19 q0 -45 -16 -94t-44 -98t-65.5 -92t-80.5 -76h-103z" />
<glyph unicode="&#x201e;" horiz-adv-x="946" d="M92 -252q70 61 117 128t61 126h-4q-57 0 -88 37t-31 84v12q0 53 35 89t92 36q59 0 93 -39t34 -94v-18q0 -45 -16 -94.5t-44 -98.5t-65.5 -92t-80.5 -76h-103zM495 -252q70 61 117 128t61 126h-4q-57 0 -88 37t-31 84v12q0 53 35 89t92 36q59 0 93 -39t34 -94v-18 q0 -45 -16 -94.5t-44 -98.5t-65.5 -92t-80.5 -76h-103z" />
<glyph unicode="&#x2022;" horiz-adv-x="851" d="M184 612v21q0 98 64.5 165.5t177.5 67.5t177.5 -67.5t64.5 -165.5v-21q0 -98 -64.5 -165.5t-177.5 -67.5t-177.5 67.5t-64.5 165.5z" />
<glyph unicode="&#x2026;" horiz-adv-x="1648" d="M147 98v13q0 51 34 86.5t93 35.5t93 -35.5t34 -86.5v-13q0 -51 -34 -87t-93 -36t-93 36t-34 87zM696 98v13q0 51 34 86.5t93 35.5t93 -35.5t34 -86.5v-13q0 -51 -34 -87t-93 -36t-93 36t-34 87zM1247 98v13q0 51 34 86.5t93 35.5t93 -35.5t34 -86.5v-13q0 -51 -34 -87 t-93 -36t-93 36t-34 87z" />
<glyph unicode="&#x202f;" horiz-adv-x="398" />
<glyph unicode="&#x2039;" horiz-adv-x="622" d="M74 537v94l395 366l41 -55l-260 -358l260 -359l-41 -55z" />
<glyph unicode="&#x203a;" horiz-adv-x="622" d="M113 225l260 359l-260 358l41 55l395 -366v-94l-395 -367z" />
<glyph unicode="&#x205f;" horiz-adv-x="497" />
<glyph unicode="&#x20ac;" horiz-adv-x="1267" d="M102 715q0 354 153 546.5t433 192.5q98 0 177 -20.5t134.5 -57.5t85 -87t29.5 -109q0 -66 -36 -104t-97 -38q-59 0 -90 39t-31 92q0 84 88 123v6q-41 25 -101.5 36.5t-137.5 11.5q-104 0 -179 -34t-124.5 -92.5t-75 -136t-31.5 -168.5h508v-94h-510v-217h510v-94h-506 q23 -186 127 -295t279 -109q139 0 228 76t132 193l78 -39q-16 -59 -54 -122.5t-97.5 -117t-140.5 -87.5t-183 -34q-129 0 -234.5 51.5t-179.5 147.5t-114 232.5t-40 308.5z" />
<glyph unicode="&#x2122;" horiz-adv-x="1441" d="M72 1278v152h501v-152h-75v90h-125v-459h82v-51h-265v51h82v459h-125v-90h-75zM645 858v51h68v467h-68v54h176l166 -338l162 338h174v-54h-68v-467h68v-51h-231v51h67v332l6 82h-6l-35 -80l-157 -309l-152 307l-35 86h-6l4 -86v-332h68v-51h-201z" />
<glyph unicode="&#x25fc;" horiz-adv-x="1054" d="M0 0v1055h1055v-1055h-1055z" />
</font>
</defs>
</svg>
